National Geographic: Дикое меню / Wild Menu / 5 серий из 26 [2014, Документальный, познавательный, HDTVRip 720p]

 
Автор Сообщение

TorrentFilm ®

Пол:

Стаж: 2 года

Сообщений: 7741



Награды: Нет

Торрент-статистика

Создавать темы 27-Июн-2015 00:10

[Цитировать]

Дикое менюWild Menu
-Год выпуска: 2014
Страна: Испания, Китай
Производство: CINTV and LIC China coproduction
Режиссёр: Juan Antonio Rodriguez
Жанр: Документальный, познавательный, природа, животный мир
Продолжительность: 5 x 00:21:59-Перевод: Студийный (одноголосый) [студия Велес - Михаил Хрусталёв]
Русские субтитры: нет-Описание: У нас, животных, очень мало насущных потребностей: сон, размножение, воздух, вода, но самое главное - еда, еда и еда! Мы, животные - голодное племя. Ежедневно мы поедаем половину планеты: растения, цветы, плоды, насекомых, рыбу, птиц, а также свежее или протухшее мясо. Множество живых существ хватают, жуют и проглатывают многие миллионы других голодных созданий. Мы все обедаем в ресторане под названием "Планета Земля". Самое забавное в этом ресторане - мы все посетители и главное блюдо одновременно. Сначала едим мы, затем сами попадаем в меню. Этот природный ресторан для животных открыт круглосуточно. Добро пожаловать и приятного аппетита!-Источник записи: Рип с HDTV-записи телеканала Nat Geo Wild HD.
Автор рипа - san007-Тип релиза: HDTVRip 720p
Контейнер: MKV-Видео: AVC H.264, 1280x720p (16:9), 25p fps, ~4310 kbps, ~0.18,7 bits/pixel
Аудио 1: Russian, MP2, 48KHz, Stereo (2 channels), 192 kbps
Аудио 2: English, MP2, 48KHz, Stereo (2 channels), 192 kbps-

Раздача в HDTV 1080i

Список эпизодов

E01 Restaurant Earth / Ресторан Земля
E02 Crunchy Insects / Хрустящие насекомые
E03 The Fruit of Temptation / Плод искушения
E04 Very Old Meat / Очень несвежее мясо
E05 Pasta / Макароны

E06 The Big Buffet / Большой шведский стол
E07 Assorted Salads / Салаты в ассортименте
E08 Beach Bar / Пляжная закусочная
E09 Children's Menu / Детское питание
E10 Fresh Meat / Свежее мясо
E11 Sushi Mix / Рыбное ассорти
E12 Unique Utensils / Столовые приборы
E13 Delicatessen / Кулинария
E14 Eating With Your Hands / Еда руками
E15 Cheers! / Ваше здоровье!
E16 Autumn Fruit / Осенние плоды
E17 Soups / Супы
E18 Frog Kitchen / Лягушачья кухня
E19 Fresh Seafood / Дары моря
E20 Tapas / Закуски
E21 Lovers Menu / Меню для влюблённых
E22 Sweet Flowers / Сладкие цветы
E23 Feast or Famine / Пир или голод
E24 Dining Companions / Товарищи по застолью
E25 Table Manners / Правила поведения за столом
E26 Waste Not, Want Not / Жизнь без отходов

MediaInfo

General
Format : Matroska
Format version : Version 4 / Version 2
File size : 739 MiB
Duration : 21mn 59s
Overall bit rate : 4 696 Kbps
Writing application : mkvmerge v7.7.0 ('Six Voices') 64bit
Writing library : libebml v1.3.1 + libmatroska v1.4.2
Video #1
ID : 1
Format : AVC
Format/Info : Advanced Video Codec
Format profile : High@L4.1
Format settings, CABAC : Yes
Format settings, ReFrames : 8 frames
Codec ID : V_MPEG4/ISO/AVC
Duration : 21mn 59s
Bit rate : 4 310 Kbps
Width : 1 280 pixels
Height : 720 pixels
Display aspect ratio : 16:9
Frame rate mode : Constant
Frame rate : 25.000 fps
Color space : YUV
Chroma subsampling : 4:2:0
Bit depth : 8 bits
Scan type : Progressive
Bits/(Pixel*Frame) : 0.187
Stream size : 664 MiB (90%)
Writing library : x264 core 144 r2525 40bb568
Encoding settings : cabac=1 / ref=8 / deblock=1:-1:-1 / analyse=0x3:0x133 / me=umh / subme=9 / psy=1 / psy_rd=1.00:0.10 / mixed_ref=1 / me_range=24 / chroma_me=1 / trellis=2 / 8x8dct=1 / cqm=0 / deadzone=21,11 / fast_pskip=1 / chroma_qp_offset=-3 / threads=6 / lookahead_threads=1 / sliced_threads=0 / nr=0 / decimate=1 / interlaced=0 / bluray_compat=0 / constrained_intra=0 / bframes=8 / b_pyramid=2 / b_adapt=2 / b_bias=0 / direct=3 / weightb=1 / open_gop=0 / weightp=2 / keyint=250 / keyint_min=25 / scenecut=40 / intra_refresh=0 / rc_lookahead=60 / rc=2pass / mbtree=1 / bitrate=4310 / ratetol=1.0 / qcomp=0.60 / qpmin=0 / qpmax=69 / qpstep=4 / cplxblur=20.0 / qblur=0.5 / ip_ratio=1.40 / aq=1:1.00
Default : Yes
Forced : No
Audio #2
ID : 2
Format : MPEG Audio
Format version : Version 1
Format profile : Layer 2
Codec ID : A_MPEG/L2
Codec ID/Hint : MP2
Duration : 21mn 59s
Bit rate mode : Constant
Bit rate : 192 Kbps
Channel(s) : 2 channels
Sampling rate : 48.0 KHz
Compression mode : Lossy
Stream size : 30.2 MiB (4%)
Title : Russian
Language : Russian
Default : Yes
Forced : No
Audio #3
ID : 3
Format : MPEG Audio
Format version : Version 1
Format profile : Layer 2
Codec ID : A_MPEG/L2
Codec ID/Hint : MP2
Duration : 21mn 59s
Bit rate mode : Constant
Bit rate : 192 Kbps
Channel(s) : 2 channels
Sampling rate : 48.0 KHz
Compression mode : Lossy
Stream size : 30.2 MiB (4%)
Title : English
Language : English
Default : No
Forced : No
[Профиль] [ЛС]
Кто просматривает тему:

Форум Тема Автор Размер
Trance, Goa, Psy, Ambient (Goa Trance) VA - Spiral Trax: International Goa & Progressive Trance Vol.3 (Spiral Trax [SPITCD045]) - 2016, MP3, 320 kbps Kuzmich47 365 MB
National Geographic National Geographic. Спасти планету / Before the Flood (2016) WEBRip от ExKinoRay | D Zithylord 1.37 GB
National Geographic National Geographic: Апокалипсис: Первая мировая война / Apocalypse: World War I [01-05 из 05] (2014) HDTVRip sergej644 3.22 GB
Документальные HD National Geographic: Дикое меню / Wild Menu / 5 серий из 26 [2014, Документальный, познавательный, HDTV 1080i] TorrentFilm 7.87 GB
National Geographic National Geographic: Золото Юкона / Yukon Gold / 1 сезон / 1 серия из (10)[2013, Реалити, ТВ-Шоу, HDTVRip-AVC 1080p] TorrentFilm 1.93 GB
Документальные HD Дикая Флорида / Wildes Florida (Вирджиния Сомма / Virginia Somma) [2013, Документальный, научно-познавательный, природа, флора, фауна, BDRemux 1080i] National Geographic TorrentFilm 19.06 GB
National Geographic Дикий Запад / National Geographic: The Wild West (Энди Митчел / Andy Mitchell) [2013, Документальный, BDRip] reversefile 2.17 GB
Документальные HD Проверь себя. Фильм 01 (Из 03) (National Geographic) [2011, Документальный, HDTV 1080i] TorrentFilm 7.43 GB
Показать сообщения:    

Текущее время: Сегодня 16:53

Часовой пояс: GMT



Вы не можете начинать темы
Вы не можете отвечать на сообщения
Вы не можете редактировать свои сообщения
Вы не можете удалять свои сообщения
Вы не можете голосовать в опросах
Вы не можете прикреплять файлы к сообщениям
Вы не можете скачивать файлы