Nat Geo Wild: Удивительные пауки / Incredible Spiders (Jessica Connell) [2015 г., Документальный, научно-познавательный, HDTVRip 720p]

 
Автор Сообщение

skorpionN ®

Пол:

Стаж: 1 год 8 месяцев

Сообщений: 592



Награды: 4 (Подробнее)

Top Releaser 2 (Количество: 1) Mega Seeder 1 (Количество: 1) Mega Seeder 2 (Количество: 1)
Торрент-статистика

Создавать темы 22-Май-2016 15:12

[Цитировать]

Nat Geo Wild: Удивительные пауки / Incredible Spiders
Год выпуска: 2015
Страна: США, Earth Touch and Nation Geographic Cannels
Жанр: Документальный, научно-познавательный
Продолжительность: 00:44:00
Перевод: Профессиональный (одноголосый), переведено и озвучено на студии Велес, текст читает Олег Фёдоров
Режиссер: Jessica Connell
Описание: В жутком царстве, недоступном для наших глаз, правят восьминогие чудовища. Они обитают в тропических джунглях, безжизненных пустынях и даже под водой. Среди них встречаются плотоядные гиганты, восстающие из-под земли. Некоторые оснащены целым арсеналом оружия. А в лесах бассейна Амазонки живёт исполин, который затмевает их всех - самый большой паук на нашей планете. Пауки, живущие на Земле обладают множеством странных и удивительных способностей. Они стреляют щетинками, танцуют диско, являются умелыми акробатами и метателями паутины, умеют ходить по воде и даже летать. Эти восьминогие и восьмиглазые существа занимают важное место в экосистеме нашей планеты.. Миллионы лет они доказывают нам, что способны не просто выживать в самых разнообразных и экстремальных климах Земли но и процветать в них. И хоть у них плохая репутация, планета не была бы прежней без удивительных пауков. .
Познакомьтесь с самыми удивительными пауками и исследуйте скрытый мир, которым правят волосатые восьминогие монстры, являющиеся самыми универсальными машинами для убийства на планете.
Качество: HDTVRip 720p
Формат: MKV
Видео кодек: H.264
Аудио кодек: AC3
Видео: 1280x720 25.00fps 4000 Kbps
Аудио 1: (Rus) AC3 2ch, 48kHz, 192 kbps
Аудио 2: (En) AC3 2ch, 48kHz, 192 kbps

Скриншоты


MediaInfo:

Format : Matroska
Format version : Version 4 / Version 2
File size : 1.34 GiB
Duration : 43mn 59s
Overall bit rate mode : Variable
Overall bit rate : 4 377 Kbps
Encoded date : UTC 2016-05-22 15:06:26
Writing application : mkvmerge v7.3.0 ('Nouages') 64bit built on Oct 22 2014 18:53:34
Writing library : libebml v1.3.0 + libmatroska v1.4.1
DURATION : 00:43:59.488000000
NUMBER_OF_FRAMES : 82484
NUMBER_OF_BYTES : 63347712
_STATISTICS_WRITING_APP : mkvmerge v7.3.0 ('Nouages') 64bit built on Oct 22 2014 18:53:34
_STATISTICS_WRITING_DATE_UTC : 2016-05-22 15:06:26
_STATISTICS_TAGS : BPS DURATION NUMBER_OF_FRAMES NUMBER_OF_BYTES
Video
ID : 1
Format : AVC
Format/Info : Advanced Video Codec
Format profile : High@L4.1
Format settings, CABAC : Yes
Format settings, ReFrames : 3 frames
Codec ID : V_MPEG4/ISO/AVC
Duration : 43mn 59s
Bit rate mode : Variable
Bit rate : 4 000 Kbps
Maximum bit rate : 8 000 Kbps
Width : 1 280 pixels
Height : 720 pixels
Display aspect ratio : 16:9
Frame rate mode : Constant
Frame rate : 25.000 fps
Standard : NTSC
Color space : YUV
Chroma subsampling : 4:2:0
Bit depth : 8 bits
Scan type : Progressive
Bits/(Pixel*Frame) : 0.174
Stream size : 1.20 GiB (89%)
Writing library : x264 core 114
Encoding settings : cabac=1 / ref=3 / deblock=1:0:0 / analyse=0x3:0x113 / me=hex / subme=7 / psy=1 / psy_rd=1.00:0.00 / mixed_ref=1 / me_range=16 / chroma_me=1 / trellis=1 / 8x8dct=1 / cqm=2 / deadzone=21,11 / fast_pskip=1 / chroma_qp_offset=-4 / threads=6 / sliced_threads=0 / slices=1 / nr=0 / decimate=1 / interlaced=0 / constrained_intra=0 / bframes=3 / b_pyramid=0 / b_adapt=1 / b_bias=0 / direct=1 / weightb=1 / open_gop=0 / weightp=2 / keyint=250 / keyint_min=25 / scenecut=40 / intra_refresh=0 / rc_lookahead=40 / rc=2pass / mbtree=1 / bitrate=4000 / ratetol=1.0 / qcomp=0.60 / qpmin=5 / qpmax=69 / qpstep=4 / cplxblur=20.0 / qblur=0.5 / vbv_maxrate=8000 / vbv_bufsize=7995 / nal_hrd=vbr / ip_ratio=1.40 / aq=1:1.00
Default : Yes
Forced : No
Color primaries : BT.709
Transfer characteristics : BT.709
Matrix coefficients : BT.709
Color range : Limited
Audio #1
ID : 2
Format : AC-3
Format/Info : Audio Coding 3
Mode extension : CM (complete main)
Format settings, Endianness : Big
Codec ID : A_AC3
Duration : 43mn 59s
Bit rate mode : Constant
Bit rate : 192 Kbps
Channel(s) : 2 channels
Channel positions : Front: L R
Sampling rate : 48.0 KHz
Bit depth : 16 bits
Compression mode : Lossy
Stream size : 60.4 MiB (4%)
Language : Russian
Default : No
Forced : No
Audio #2
ID : 3
Format : AC-3
Format/Info : Audio Coding 3
Mode extension : CM (complete main)
Format settings, Endianness : Big
Codec ID : A_AC3
Duration : 43mn 59s
Bit rate mode : Constant
Bit rate : 192 Kbps
Channel(s) : 2 channels
Channel positions : Front: L R
Sampling rate : 48.0 KHz
Bit depth : 16 bits
Compression mode : Lossy
Stream size : 60.4 MiB (4%)
Language : English
Default : Yes
Forced : No
Nat Geo Wild: Удивительные пауки / Incredible Spiders HDTVRip 720p
Nat Geo Wild: Удивительные насекомые / Incredible Insects HDTVRip 720p
Nat Geo Wild: Удивительные копатели / Incredible Diggers HDTVRip 720p
[Профиль] [ЛС]
Кто просматривает тему:

Форум Тема Автор Размер
Nat Geo Wild Nat Geo Wild: Анаконда: Тихий убийца / Anaconda: Silent Killer (Marion Pullmann) [2014 г., Документальный, природа, флора, фауна, HDTVRip 720p] skorpionN 1.52 GB
Nat Geo Wild Nat Geo Wild: Волчьи горы / The Wolf Mountains (Erik Balaz) [2013 г., Документальный, фауна, флора, HDTVRip 720p] skorpionN 1.53 GB
Nat Geo Wild Nat Geo Wild: Выжить несмотря ни на что / Extreme Survivors (Thomas Harnisch) [2014 г., Документальный, природа, флора, фауна, HDTVRip 720p] skorpionN 1.35 GB
Nat Geo Wild Nat Geo Wild: Дикая Антарктика / Wild Antarctica (Jessica Connell) [2015 г., Документальный, научно-познавательный, HDTVRip-AVC 720p] skorpionN 1.59 GB
Nat Geo Wild Nat Geo Wild: Дикая Венеция / Wild Venice (Klaus T. Steindl) [2014 г., Документальный, природа, флора, фауна, HDTVRip 720p] skorpionN 1.59 GB
Nat Geo Wild Nat Geo Wild: Дикая Иберия / Wild Iberia [сезон 1 серии 1-4 из 4] (Альваро Мендоза / Alvaro Mendoza) [2014 г., Документальный, природа, флора, фауна, HDTVRip 720p] skorpionN 6.33 GB
Nat Geo Wild Nat Geo Wild: Дикая Колумбия / Wild Colombia [серии 1-3 из 3] (Andrew Moorwood) [2014 г., Документальный, природа, флора, фауна, HDTVRip 720p] skorpionN 4.78 GB
Nat Geo Wild Nat Geo Wild: Дикая Нижняя Калифорния / Wild Baja California (Michael Watchulonis) [2014 г., Документальный, флора, фауна, HDTVRip 720p] skorpionN 1.34 GB
Показать сообщения:    

Текущее время: Сегодня 13:02

Часовой пояс: GMT



Вы не можете начинать темы
Вы не можете отвечать на сообщения
Вы не можете редактировать свои сообщения
Вы не можете удалять свои сообщения
Вы не можете голосовать в опросах
Вы не можете прикреплять файлы к сообщениям
Вы не можете скачивать файлы