Nat Geo Wild: Удивительные насекомые / Incredible Insects (Jessica Connell) [2015 г., Документальный, научно-познавательный, HDTVRip 720p]

 
Автор Сообщение

skorpionN ®

Пол:

Стаж: 1 год 8 месяцев

Сообщений: 591



Награды: 4 (Подробнее)

Mega Seeder 2 (Количество: 1) Top Releaser 2 (Количество: 1) Mega Seeder 3 (Количество: 1)
Торрент-статистика

Создавать темы 29-Май-2016 19:14

[Цитировать]

Nat Geo Wild: Удивительные насекомые / Incredible Insects
Год выпуска: 2015
Страна: США, Earth Touch and Nation Geographic Cannels
Жанр: Документальный, научно-познавательный
Продолжительность: 00:43:59
Перевод: Профессиональный (одноголосый), переведено и озвучено на студии Велес, текст читает Олег Фёдоров
Режиссер: Jessica Connell
Описание: Нельзя представить мир без насекомых. Они являются важным звеном пищевой цепочки без которого не существовала бы жизнь на Земле. На нашей планете скрывается удивительный мир насекомых, количество которых превышает население Земли в 200 000 000 раз. Это самая многочисленная группа животных в мире. Они правят небом, подводным миром и лесной подстилкой. У насекомых есть великолепные адаптации: пугающие ротовые органы, многочисленное потомство и отличная маскировка. Среди них есть не только сильные гигантские хищники, которые могут охотится даже на летучих мышей но и умелые охотники на более мелкую добычу, а также внимательные родители. На протяжении миллионов лет эволюции беспозвоночные не только выживали, но и процветали, демонстрируя невероятную адаптацию. В этом фильме мы расскажем вам о невидимом мире НЕВЕРОЯТНЫХ НАСЕКОМЫХ.
Качество: HDTVRip 720p
Формат: MKV
Видео кодек: H.264
Аудио кодек: AC3
Видео: 1280x720 25.00fps 5000 Kbps
Аудио 1: (Rus) AC3 2ch, 48kHz, 192 kbps
Аудио 2: (En) AC3 2ch, 48kHz, 192 kbps

Скриншоты


MediaInfo

Format : Matroska
Format version : Version 4 / Version 2
File size : 1.65 GiB
Duration : 43mn 59s
Overall bit rate mode : Variable
Overall bit rate : 5 380 Kbps
Encoded date : UTC 2016-05-29 18:46:19
Writing application : mkvmerge v7.3.0 ('Nouages') 64bit built on Oct 22 2014 18:53:34
Writing library : libebml v1.3.0 + libmatroska v1.4.1
DURATION : 00:43:58.880000000
NUMBER_OF_FRAMES : 82465
NUMBER_OF_BYTES : 63333120
_STATISTICS_WRITING_APP : mkvmerge v7.3.0 ('Nouages') 64bit built on Oct 22 2014 18:53:34
_STATISTICS_WRITING_DATE_UTC : 2016-05-29 18:46:19
_STATISTICS_TAGS : BPS DURATION NUMBER_OF_FRAMES NUMBER_OF_BYTES
Video
ID : 1
Format : AVC
Format/Info : Advanced Video Codec
Format profile : High@L4.1
Format settings, CABAC : Yes
Format settings, ReFrames : 3 frames
Codec ID : V_MPEG4/ISO/AVC
Duration : 43mn 59s
Bit rate mode : Variable
Bit rate : 5 000 Kbps
Maximum bit rate : 8 000 Kbps
Width : 1 280 pixels
Height : 720 pixels
Display aspect ratio : 16:9
Frame rate mode : Constant
Frame rate : 25.000 fps
Standard : NTSC
Color space : YUV
Chroma subsampling : 4:2:0
Bit depth : 8 bits
Scan type : Progressive
Bits/(Pixel*Frame) : 0.217
Stream size : 1.50 GiB (91%)
Writing library : x264 core 114
Encoding settings : cabac=1 / ref=3 / deblock=1:0:0 / analyse=0x3:0x113 / me=hex / subme=7 / psy=1 / psy_rd=1.00:0.00 / mixed_ref=1 / me_range=16 / chroma_me=1 / trellis=1 / 8x8dct=1 / cqm=2 / deadzone=21,11 / fast_pskip=1 / chroma_qp_offset=-4 / threads=6 / sliced_threads=0 / slices=1 / nr=0 / decimate=1 / interlaced=0 / constrained_intra=0 / bframes=3 / b_pyramid=0 / b_adapt=1 / b_bias=0 / direct=1 / weightb=1 / open_gop=0 / weightp=2 / keyint=250 / keyint_min=25 / scenecut=40 / intra_refresh=0 / rc_lookahead=40 / rc=2pass / mbtree=1 / bitrate=5000 / ratetol=1.0 / qcomp=0.60 / qpmin=5 / qpmax=69 / qpstep=4 / cplxblur=20.0 / qblur=0.5 / vbv_maxrate=8000 / vbv_bufsize=7995 / nal_hrd=vbr / ip_ratio=1.40 / aq=1:1.00
Default : Yes
Forced : No
Color primaries : BT.709
Transfer characteristics : BT.709
Matrix coefficients : BT.709
Audio #1
ID : 2
Format : AC-3
Format/Info : Audio Coding 3
Mode extension : CM (complete main)
Format settings, Endianness : Big
Codec ID : A_AC3
Duration : 43mn 59s
Bit rate mode : Constant
Bit rate : 192 Kbps
Channel(s) : 2 channels
Channel positions : Front: L R
Sampling rate : 48.0 KHz
Bit depth : 16 bits
Compression mode : Lossy
Stream size : 60.4 MiB (4%)
Language : Russian
Default : Yes
Forced : No
Audio #2
ID : 3
Format : AC-3
Format/Info : Audio Coding 3
Mode extension : CM (complete main)
Format settings, Endianness : Big
Codec ID : A_AC3
Duration : 43mn 59s
Bit rate mode : Constant
Bit rate : 192 Kbps
Channel(s) : 2 channels
Channel positions : Front: L R
Sampling rate : 48.0 KHz
Bit depth : 16 bits
Compression mode : Lossy
Stream size : 60.4 MiB (4%)
Language : English
Default : No
Forced : No
Nat Geo Wild: Удивительные пауки / Incredible Spiders HDTVRip 720p
Nat Geo Wild: Удивительные насекомые / Incredible Insects HDTVRip 720p
Nat Geo Wild: Удивительные копатели / Incredible Diggers HDTVRip 720p
[Профиль] [ЛС]
Кто просматривает тему:

Форум Тема Автор Размер
Nat Geo Wild Nat Geo Wild: Анаконда: Тихий убийца / Anaconda: Silent Killer (Marion Pullmann) [2014 г., Документальный, природа, флора, фауна, HDTVRip 720p] skorpionN 1.52 GB
Nat Geo Wild Nat Geo Wild: Волчьи горы / The Wolf Mountains (Erik Balaz) [2013 г., Документальный, фауна, флора, HDTVRip 720p] skorpionN 1.53 GB
Nat Geo Wild Nat Geo Wild: Выжить несмотря ни на что / Extreme Survivors (Thomas Harnisch) [2014 г., Документальный, природа, флора, фауна, HDTVRip 720p] skorpionN 1.35 GB
Nat Geo Wild Nat Geo Wild: Дикая Антарктика / Wild Antarctica (Jessica Connell) [2015 г., Документальный, научно-познавательный, HDTVRip-AVC 720p] skorpionN 1.59 GB
Nat Geo Wild Nat Geo Wild: Дикая Венеция / Wild Venice (Klaus T. Steindl) [2014 г., Документальный, природа, флора, фауна, HDTVRip 720p] skorpionN 1.59 GB
Nat Geo Wild Nat Geo Wild: Дикая Иберия / Wild Iberia [сезон 1 серии 1-4 из 4] (Альваро Мендоза / Alvaro Mendoza) [2014 г., Документальный, природа, флора, фауна, HDTVRip 720p] skorpionN 6.33 GB
Nat Geo Wild Nat Geo Wild: Дикая Колумбия / Wild Colombia [серии 1-3 из 3] (Andrew Moorwood) [2014 г., Документальный, природа, флора, фауна, HDTVRip 720p] skorpionN 4.78 GB
Nat Geo Wild Nat Geo Wild: Дикая Нижняя Калифорния / Wild Baja California (Michael Watchulonis) [2014 г., Документальный, флора, фауна, HDTVRip 720p] skorpionN 1.34 GB
Показать сообщения:    

Текущее время: Сегодня 11:52

Часовой пояс: GMT



Вы не можете начинать темы
Вы не можете отвечать на сообщения
Вы не можете редактировать свои сообщения
Вы не можете удалять свои сообщения
Вы не можете голосовать в опросах
Вы не можете прикреплять файлы к сообщениям
Вы не можете скачивать файлы