Nat Geo Wild: На крючке: Рыбы монстры / Hooked: Monster Fish (10 выпускoв) (Carlos Mora) [2008-2010, Документальный цикл, познавательный, HDTV 1080i, RU, EN]

 
Автор Сообщение

TorrentFilm ®

Пол:

Стаж: 2 года

Сообщений: 7741



Награды: Нет

Торрент-статистика

Создавать темы 26-Апр-2015 00:00

[Цитировать]

Nat Geo Wild: На крючке: Рыбы монстры / Hooked: Monster Fish
Год выпуска: 2008-2010
Страна: США, Hoff Productions
Жанр: Документальный цикл, познавательный
Продолжительность: 00:46:59
Перевод: Профессиональный (одноголосый)
Русские субтитры: нет
релиз: dean10
Режиссер: Carlos Mora
Описание:
От Конго до амазонских джунглей - отправляйтесь вместе с героями- рыболовами в кругосветное путешествие в поисках зубастых и клыкастых рыб-монстров. Потрясающие кадры невероятных на вид рыб, техника ловли и красочные пейзажи во время путешествий по миру в поисках монстров.
21.04.2015_ добавил: 10. На крючке. Людоеды_HDTV 1080i_RU_EN
перезаливаем

01. На крючке_Рыбы монстры_Рыба-вампир_HDTV 1080i_RU_EN

От Конго до амазонских джунглей - отправляйтесь вместе с нами в кругосветное путешествие в поисках зубастых и клыкастых рыб-монстров.

02. На крючке_Демоны морских глубин_HDTV 1080i_RU_EN

Бесстрашный ихтиолог исследует глубины океана, разыскивая самых крупных рыб, включая восьмиметрового кальмара и тигровую акулу, чей вес 600 кг.

03. На крючке_Летучие чудовища_HDTV 1080i_RU_EN

От черного марлина до огромных акул мако - команда бороздит моря и океаны в поисках летающих рыб.

04. На крючке. Гимносарда и желтая акула_HDTV 1080i_RU_EN

Хищник размером с человека рыщет в водах Конго.Чтобы поймать его команда искателей приключений и ученых отправляется в опасное путешествие. National Geographic подарит зрителю жажду знаний, страсть к приключению, легкий привкус экзотики и массу незабываемых впечатлений. Следите за самой невероятной рыбалкой из всех виденных вами, и вы станете очевидцем самых захватывающих схваток людей с огромными рыбами.

05. На крючке. Захватчики_HDTV 1080i_RU_EN

Летающая угроза. Чюжеземная стая. Рыба- снаряд, угрожающая эко-системе. Их нужно остановить, пока они не остановили нас.

06. На крючке. Сом и гигантский карп_HDTV 1080i_RU_EN

Следите за самыми интересными столкновениями человека и рыбы. В Новой Зеландии двое мужчин вступают в схватку с собакозубым тунцом и зубаткой.

07. На крючке. Скат-хвостокол и окунь-голиаф_HDTV 1080i_RU_EN

Посмотрите на самых устрашающих морских обитателей в действии, включая самую быструю акулу, огромного ската-хвостокола и голубого тунца.

08. На крючке. Экстремальная рыбалка_HDTV 1080i_RU_EN

09. На крючке. Пойманы голыми руками_HDTV 1080i_RU_EN

Следите за бесстрашными рыбаками из Оклахомы, которые соревнуются, вылавливая голыми руками гигантских сомов.

10. На крючке. Людоеды_HDTV 1080i_RU_EN

Рыболов - экстремал охотится за огромным хищником. Это сом - багарий. Ходят легенды, что эта рыба запросто может проглотить человека. Заслужил ли сом славу людоеда? Или все это выдумки?
Доп. информация: Фильм переведён на Студии АРК•ТВ
Текст читал: Александр Коврижных

MI

General
Unique ID : 216622013771024407204545022488361751688 (0xA2F7E1DDFCC25D99482416362976D488)
Complete name : C:\На крючке_Рыбы монстры_Рыба-вампир_HDTV 1080i_RU_EN.mkv
Format : Matroska
Format version : Version 2
File size : 3.60 GiB
Duration : 46mn 59s
Overall bit rate : 11.0 Mbps
Writing application : Lavf53.31.100
Writing library : Lavf53.31.100
Video
ID : 1
Format : AVC
Format/Info : Advanced Video Codec
Format profile : High@L4.0
Format settings, CABAC : Yes
Format settings, ReFrames : 4 frames
Codec ID : V_MPEG4/ISO/AVC
Bit rate : 10.4 Mbps
Width : 1 920 pixels
Height : 1 080 pixels
Display aspect ratio : 16:9
Frame rate mode : Variable
Original frame rate : 25.000 fps
Standard : Component
Color space : YUV
Chroma subsampling : 4:2:0
Bit depth : 8 bits
Scan type : Interlaced
Scan order : Top Field First
Default : Yes
Forced : No
Color primaries : BT.709
Transfer characteristics : BT.709
Matrix coefficients : BT.709
Audio #1
ID : 2
Format : MPEG Audio
Format version : Version 1
Format profile : Layer 2
Codec ID : A_MPEG/L2
Codec ID/Hint : MP2
Duration : 46mn 59s
Bit rate mode : Constant
Bit rate : 192 Kbps
Channel(s) : 2 channels
Sampling rate : 48.0 KHz
Compression mode : Lossy
Delay relative to video : 1mn 5s
Stream size : 64.5 MiB (2%)
Language : Russian
Default : Yes
Forced : No
Audio #2
ID : 3
Format : MPEG Audio
Format version : Version 1
Format profile : Layer 2
Codec ID : A_MPEG/L2
Codec ID/Hint : MP2
Duration : 46mn 59s
Bit rate mode : Constant
Bit rate : 192 Kbps
Channel(s) : 2 channels
Sampling rate : 48.0 KHz
Compression mode : Lossy
Stream size : 64.5 MiB (2%)
Language : English
Default : No
Forced : No
Качество: HDTV 1080i
Формат: MKV
Видео кодек: H.264
Аудио кодек: MP2
Видео: AVC, 1920x1080, (16:9), 25 fps, 10 400 kbps
Аудио#1: Russian: 48 kHz; MP2, 2 ch; 192 kbps
Аудио#2: English: 48 kHz; MP2, 2 ch; 192 kbps

Скриншоты

[Профиль] [ЛС]
Кто просматривает тему:

Форум Тема Автор Размер
Nat Geo Wild Nat Geo Wild: Анаконда: Тихий убийца / Anaconda: Silent Killer (Marion Pullmann) [2014 г., Документальный, природа, флора, фауна, HDTVRip 720p] skorpionN 1.52 GB
Nat Geo Wild Nat Geo Wild: Волчьи горы / The Wolf Mountains (Erik Balaz) [2013 г., Документальный, фауна, флора, HDTVRip 720p] skorpionN 1.53 GB
Nat Geo Wild Nat Geo Wild: Выжить несмотря ни на что / Extreme Survivors (Thomas Harnisch) [2014 г., Документальный, природа, флора, фауна, HDTVRip 720p] skorpionN 1.35 GB
Nat Geo Wild Nat Geo Wild: Дикая Антарктика / Wild Antarctica (Jessica Connell) [2015 г., Документальный, научно-познавательный, HDTVRip-AVC 720p] skorpionN 1.59 GB
Nat Geo Wild Nat Geo Wild: Дикая Венеция / Wild Venice (Klaus T. Steindl) [2014 г., Документальный, природа, флора, фауна, HDTVRip 720p] skorpionN 1.59 GB
Nat Geo Wild Nat Geo Wild: Дикая Иберия / Wild Iberia [сезон 1 серии 1-4 из 4] (Альваро Мендоза / Alvaro Mendoza) [2014 г., Документальный, природа, флора, фауна, HDTVRip 720p] skorpionN 6.33 GB
Nat Geo Wild Nat Geo Wild: Дикая Колумбия / Wild Colombia [серии 1-3 из 3] (Andrew Moorwood) [2014 г., Документальный, природа, флора, фауна, HDTVRip 720p] skorpionN 4.78 GB
Nat Geo Wild Nat Geo Wild: Дикая Нижняя Калифорния / Wild Baja California (Michael Watchulonis) [2014 г., Документальный, флора, фауна, HDTVRip 720p] skorpionN 1.34 GB
Показать сообщения:    

Текущее время: Сегодня 00:34

Часовой пояс: GMT



Вы не можете начинать темы
Вы не можете отвечать на сообщения
Вы не можете редактировать свои сообщения
Вы не можете удалять свои сообщения
Вы не можете голосовать в опросах
Вы не можете прикреплять файлы к сообщениям
Вы не можете скачивать файлы