Nat Geo Wild: Кровная вражда. Лев против буйвола / Blood Rivals. Lion vs Buffalo (Билли-Жан Паркер \\ Billi-Jean Parker) [2014, Документальный, HDTVRip 720p]

 
Автор Сообщение

TorrentFilm ®

Пол:

Стаж: 2 года

Сообщений: 7741



Награды: Нет

Торрент-статистика

Создавать темы 30-Июл-2015 00:10

[Цитировать]

Nat Geo Wild: Кровная вражда. Лев против буйвола
Blood Rivals. Lion vs Buffalo

Год выпуска: 2014
Страна: США
Студия: National Geographic Television, Earth Touch USA
Канал:
Жанр: Документальный
Продолжительность: 00:44:00
Перевод: Профессиональный (дублированный)
Доп. инфо о переводе: Студия "Велес" (Борис Хасанов)
Режиссер: Билли-Жан Паркер \ Billi-Jean Parker
Описание: Коллективная мощь и единая стратегия необходимы стаду буйволов, чтобы защищать своих детёнышей от постоянных атак местного прайда львов.

Тип релиза: HDTVRip 720p
Контейнер: MKV
Видео: MPEG-4 AVC (H.264), 1280x720 (16:9), 4000 Kbps, 25 fps, 0.174 bit\pixel
Аудио RUS: MP2, 192 Кбит/с, 48 kHz, 2 ch
Аудио ENG: MP2, 192 Кбит/с, 48 kHz, 2 ch

MediaInfo

GeneralUnique ID : 248644087900585054802537556995475747250 (0xBB0F1C04254ECD76A7F9E834E7E3B1B2)Complete name : D:\Видео\Флора и фауна\Lion.vs.Buffalo HDTVRip-720p.2014.mkvFormat : MatroskaFormat version : Version 4 / Version 2File size : 1.35 GiBDuration : 43mn 59sOverall bit rate : 4 386 KbpsEncoded date : UTC 2015-07-29 15:22:14Writing application : mkvmerge v8.1.0 ('Psychedelic Postcard') 64bitWriting library : libebml v1.3.1 + libmatroska v1.4.2DURATION : 00:43:59.616000000NUMBER_OF_FRAMES : 109984NUMBER_OF_BYTES : 63350784_STATISTICS_WRITING_APP : mkvmerge v8.1.0 ('Psychedelic Postcard') 64bit_STATISTICS_WRITING_DATE_UTC : 2015-07-29 15:22:14_STATISTICS_TAGS : BPS DURATION NUMBER_OF_FRAMES NUMBER_OF_BYTES
VideoID : 1Format : AVCFormat/Info : Advanced Video CodecFormat profile : High@L4.1Format settings, CABAC : YesFormat settings, ReFrames : 6 framesCodec ID : V_MPEG4/ISO/AVCDuration : 43mn 59sBit rate : 4 000 KbpsWidth : 1 280 pixelsHeight : 720 pixelsDisplay aspect ratio : 16:9Frame rate mode : ConstantFrame rate : 25.000 fpsColor space : YUVChroma subsampling : 4:2:0Bit depth : 8 bitsScan type : ProgressiveBits/(Pixel*Frame) : 0.174Stream size : 1.20 GiB (89%)Title : HDTVRip by VicmanWriting library : x264 core 146 r2538 121396cEncoding settings : cabac=1 / ref=6 / deblock=1:0:0 / analyse=0x3:0x111 / me=umh / subme=9 / psy=1 / psy_rd=1.05:0.15 / mixed_ref=1 / me_range=32 / chroma_me=1 / trellis=2 / 8x8dct=1 / cqm=0 / deadzone=21,11 / fast_pskip=1 / chroma_qp_offset=-3 / threads=6 / lookahead_threads=1 / sliced_threads=0 / nr=0 / decimate=1 / interlaced=0 / bluray_compat=0 / constrained_intra=0 / bframes=8 / b_pyramid=2 / b_adapt=2 / b_bias=0 / direct=3 / weightb=1 / open_gop=0 / weightp=2 / keyint=250 / keyint_min=25 / scenecut=40 / intra_refresh=0 / rc_lookahead=60 / rc=2pass / mbtree=1 / bitrate=4000 / ratetol=1.0 / qcomp=0.60 / qpmin=0 / qpmax=69 / qpstep=4 / cplxblur=20.0 / qblur=0.5 / ip_ratio=1.40 / aq=2:1.00Default : YesForced : No
Audio #1ID : 2Format : MPEG AudioFormat version : Version 1Format profile : Layer 2Codec ID : A_MPEG/L2Codec ID/Hint : MP2Duration : 43mn 59sBit rate mode : ConstantBit rate : 192 KbpsChannel(s) : 2 channelsSampling rate : 48.0 KHzCompression mode : LossyStream size : 60.4 MiB (4%)Title : Студия "Велес"Language : RussianDefault : YesForced : No
Audio #2ID : 3Format : MPEG AudioFormat version : Version 1Format profile : Layer 2Codec ID : A_MPEG/L2Codec ID/Hint : MP2Duration : 43mn 59sBit rate mode : ConstantBit rate : 192 KbpsChannel(s) : 2 channelsSampling rate : 48.0 KHzCompression mode : LossyStream size : 60.4 MiB (4%)Title : OriginalLanguage : EnglishDefault : NoForced : No

Скриншоты

[Профиль] [ЛС]
Кто просматривает тему:

Форум Тема Автор Размер
Nat Geo Wild Nat Geo Wild: Анаконда: Тихий убийца / Anaconda: Silent Killer (Marion Pullmann) [2014 г., Документальный, природа, флора, фауна, HDTVRip 720p] skorpionN 1.52 GB
Nat Geo Wild Nat Geo Wild: Волчьи горы / The Wolf Mountains (Erik Balaz) [2013 г., Документальный, фауна, флора, HDTVRip 720p] skorpionN 1.53 GB
Nat Geo Wild Nat Geo Wild: Выжить несмотря ни на что / Extreme Survivors (Thomas Harnisch) [2014 г., Документальный, природа, флора, фауна, HDTVRip 720p] skorpionN 1.35 GB
Nat Geo Wild Nat Geo Wild: Дикая Антарктика / Wild Antarctica (Jessica Connell) [2015 г., Документальный, научно-познавательный, HDTVRip-AVC 720p] skorpionN 1.59 GB
Nat Geo Wild Nat Geo Wild: Дикая Венеция / Wild Venice (Klaus T. Steindl) [2014 г., Документальный, природа, флора, фауна, HDTVRip 720p] skorpionN 1.59 GB
Nat Geo Wild Nat Geo Wild: Дикая Иберия / Wild Iberia [сезон 1 серии 1-4 из 4] (Альваро Мендоза / Alvaro Mendoza) [2014 г., Документальный, природа, флора, фауна, HDTVRip 720p] skorpionN 6.33 GB
Nat Geo Wild Nat Geo Wild: Дикая Колумбия / Wild Colombia [серии 1-3 из 3] (Andrew Moorwood) [2014 г., Документальный, природа, флора, фауна, HDTVRip 720p] skorpionN 4.78 GB
Nat Geo Wild Nat Geo Wild: Дикая Нижняя Калифорния / Wild Baja California (Michael Watchulonis) [2014 г., Документальный, флора, фауна, HDTVRip 720p] skorpionN 1.34 GB
Показать сообщения:    

Текущее время: Сегодня 22:32

Часовой пояс: GMT



Вы не можете начинать темы
Вы не можете отвечать на сообщения
Вы не можете редактировать свои сообщения
Вы не можете удалять свои сообщения
Вы не можете голосовать в опросах
Вы не можете прикреплять файлы к сообщениям
Вы не можете скачивать файлы