Nat Geo Wild: Дикие острова Европы / Europe's Wild Islands (Erich Proell) [2016 г., Документальный, научно-познавательный, флора и фауна, HDTVRip-AVC 1080i]

 
Автор Сообщение

skorpionN ®

Пол:

Стаж: 2 года 8 месяцев

Сообщений: 854



Награды: 4 (Подробнее)

Mega Seeder 1 (Количество: 1) Mega Seeder 2 (Количество: 1) Top Releaser 2 (Количество: 1)
Торрент-статистика

Создавать темы 24-Май-2017 19:00

[Цитировать]

Nat Geo Wild: Дикие острова Европы / Europe's Wild Islands
Год выпуска: 2016
Страна: США, Proell Film
Жанр: Документальный, научно-познавательный, флора и фауна
Продолжительность: 00:43:54
Перевод: Профессиональный (одноголосый), переведено и озвучено на студии Велес, текст читает Борис Хасанов
Режиссер: Erich Proell
Качество: HDTVRip-AVC
Формат: MPEG
Видео кодек: H.26x
Аудио кодек: AC3
Видео: 1920x1080 25fps ~7000 Kbps
Аудио: AC3 2ch, 48kHz, 192 kbps
Описание: Земли Великобритании рассеяны по всем семи морям, от тропиков до Антарктики. В этой передаче мы посетим такие отдалённые уголки, в которых едва ли кто-то бывал.
В глубинах Атлантики вдоль древних вулканов Азорских островов, происходит медленное образование новых островов. Некоторые из этих образований едва видны над поверхностью воды. На суше большая часть площади, покрыта густой зеленью, среди которой находятся высокие вулканы. Пейзаж напоминает спящего дракона, и пара вырывающаяся из термальных источников и пещер, созданных горячими потоками лавы - это его дыхание. Задолго до прихода человека, растения росли благодаря птицам, которые прибывали сюда из Америки и Европы, в результате чего приносили семена различных видов растений.

Скриншоты


MediaInfo:

Расположение: E:\Conv_sp2\NGW_Europe's Wild Islands_1080i.ts
Имя файла: NGW_Europe's Wild Islands_1080i.ts
Формат файла: .ts (MPEG-TS)
Размер файла: 2,33 GB (2 500 220 894 bytes)
Длительность: 43mn 53s
Навигация по главам: Нет
Битрейт (все потоки): 7 596 Kbps
Битрейт (все потоки, максимальный): 35.5 Mbps
Тип битрейта (все потоки): Variable
Обложка: Отсутствует
Название: NGW_Europe's Wild Islands_1080i
Тип потока: Видео
Длительность: 00:43:53
Кодек: AVC
Кодек/описание: Advanced Video Codec
Кодек/профиль: High@L4.0
Кодек/ID: 27
Кодек/CABAC: Yes
Кодек/ReFrames: 4 frames
Размеры изображения: 1920 x 1080 (16:9)
Частота кадров: 25.000 fps
Размер потока: 2.15 GiB (93%)
Битрейт: 7 026 Kbps
Битрейт/макс: 40.0 Mbps
Битрейт/тип: VBR
Цветовое пространство: YUV
Тип развёртки: Interlaced
Колориметрия: 4:2:0
Глубина: 8 bits
Тип потока: Звук #1
Длительность: 00:43:53.248
Кодек: AC-3
Кодек/описание: Audio Coding 3
Кодек/ID: 129
Частота дискретизации: 48.0 KHz
Каналов: 2 channels
Битрейт: 192 Kbps
Битрейт/тип: Constant
Размер потока: 60.3 MiB (3%)
Глубина: 16 bits
Метод сжатия: Lossy
[Профиль] [ЛС]
Кто просматривает тему:

Форум Тема Автор Размер
Nat Geo Wild Nat Geo Wild: Амазонская электрическая рыба / Amazon's Electric Fish (Kira Ivanoff) [2015 г., Документальный, научно-популярный, HDTVRip 720p] skorpionN 1.27 GB
Nat Geo Wild Nat Geo Wild: Анаконда: Тихий убийца / Anaconda: Silent Killer (Marion Pullmann) [2014 г., Документальный, природа, флора, фауна, HDTVRip 720p] skorpionN 1.52 GB
Nat Geo Wild Nat Geo Wild: Африканская суперзмея / Africa's Super Snake [2017 г., Документальный, научно-популрный, фауна, флора, HDTVRip-AVC 720p] skorpionN 1.59 GB
Nat Geo Wild Nat Geo Wild: Битва болотных драконов / Battle of the Swamp Dragons (Casey Edlund) [2017 г., Документальный, фауна, HDTVRip 720p] skorpionN 1.6 GB
Nat Geo Wild Nat Geo Wild: В опасных водах Австралии. Обед для акул / Strike force (Лео Фабер) [2010 г., Документальный, флора, фауна, научно-познавательный, исследование, HDTV 1080i] boba88 2.19 GB
Nat Geo Wild Nat Geo Wild: Волчьи горы / The Wolf Mountains (Erik Balaz) [2013 г., Документальный, фауна, флора, HDTVRip 720p] skorpionN 1.53 GB
Nat Geo Wild Nat Geo Wild: Выжить несмотря ни на что / Extreme Survivors (Thomas Harnisch) [2014 г., Документальный, природа, флора, фауна, HDTVRip 720p] skorpionN 1.35 GB
Nat Geo Wild Nat Geo Wild: Дикая Антарктика / Wild Antarctica (Jessica Connell) [2015 г., Документальный, научно-познавательный, HDTVRip-AVC 720p] skorpionN 1.59 GB
Показать сообщения:    

Текущее время: Сегодня 07:58

Часовой пояс: GMT



Вы не можете начинать темы
Вы не можете отвечать на сообщения
Вы не можете редактировать свои сообщения
Вы не можете удалять свои сообщения
Вы не можете голосовать в опросах
Вы не можете прикреплять файлы к сообщениям
Вы не можете скачивать файлы