Nat Geo Wild: Дикая природа Филиппин / Untamed Philippines [серии 1-2 из 2] (Migel Marven) [2018 г., Документальный, научно-популярный, фауна, флора, DVB 1080i]

 
Автор Сообщение

skorpionN ®

Пол:

Стаж: 3 года 6 месяцев

Сообщений: 944



Награды: 4 (Подробнее)

Mega Seeder 2 (Количество: 1) Mega Seeder 1 (Количество: 1) Top Releaser 2 (Количество: 1)
Торрент-статистика

Создавать темы 15-Май-2018 13:42

[Цитировать]

Nat Geo Wild: Дикая природа Филиппин / Untamed Philippines [серии 1-2 из 2]
Год выпуска: 2018
Страна: США, Image Impact Ltd for National Geographic
Жанр: Документальный, научно-популярный, фауна, флора
Продолжительность: 2x~00:44:00
Перевод: Профессиональный (одноголосый), студия "Велес", текст читает Дмитрий Стрелков
Режиссер: Migel Marven
Описание:
01. Зачарованные острова / Enchanted Islands
Путешествие по Филиппинам начинается с маленького островка Батан. Встречайте уникальную гадюку и вездесущего гигантского сухопутного краба. Лусон - самый большой остров Филиппин.
02. Дикий рай / Wild Paradise
Покинув черепах на острове Палаван, отправляемся дальше на риф Туббатаха, где расположен уникальный национальный морской парк, чтобы увидеть гигантских китовых акул и скатов Манта.
Качество: DVB
Формат: MPEG
Видео кодек: H.264
Аудио кодек: MPEG Audio
Видео: 1920x1080 (16:9), 25.000 fps, ~8500 Kbps (1 серия)
Видео: 1920x1080 (16:9), 25.000 fps, ~7900 Kbps (2 серия)
Аудио 1: (Rus) MPEG Audio 2ch, 48kHz, 192 kbps
Аудио 2: (En) MPEG Audio 2ch, 48kHz, 192 kbps

Скриншоты


MediaInfo:

1 серия
Format : MPEG-TS
File size : 2.90 GiB
Duration : 44 min 19 s
Overall bit rate mode : Variable
Overall bit rate : 9 356 kb/s
Video
ID : 201 (0xC9)
Menu ID : 20101 (0x4E85)
Format : AVC
Format/Info : Advanced Video Codec
Format profile : High@L4
Format settings, CABAC : Yes
Format settings, ReFrames : 4 frames
Codec ID : 27
Duration : 44 min 19 s
Bit rate : 8 506 kb/s
Width : 1 920 pixels
Height : 1 080 pixels
Display aspect ratio : 16:9
Frame rate : 25.000 FPS
Standard : Component
Color space : YUV
Chroma subsampling : 4:2:0
Bit depth : 8 bits
Scan type : Interlaced
Scan type, store method : Separated fields
Scan order : Top Field First
Bits/(Pixel*Frame) : 0.164
Stream size : 2.63 GiB (91%)
Color range : Limited
Color primaries : BT.709
Transfer characteristics : BT.709
Matrix coefficients : BT.709
Audio #1
ID : 301 (0x12D)
Menu ID : 20101 (0x4E85)
Format : MPEG Audio
Format version : Version 1
Format profile : Layer 2
Codec ID : 3
Duration : 44 min 19 s
Bit rate mode : Constant
Bit rate : 192 kb/s
Channel(s) : 2 channels
Sampling rate : 48.0 kHz
Compression mode : Lossy
Stream size : 60.9 MiB (2%)
Language : Russian
Audio #2
ID : 302 (0x12E)
Menu ID : 20101 (0x4E85)
Format : MPEG Audio
Format version : Version 1
Format profile : Layer 2
Codec ID : 3
Duration : 44 min 19 s
Bit rate mode : Constant
Bit rate : 192 kb/s
Channel(s) : 2 channels
Sampling rate : 48.0 kHz
Compression mode : Lossy
Stream size : 60.9 MiB (2%)
Language : English
2серия
Format : MPEG-TS
File size : 2.69 GiB
Duration : 44 min 9 s
Overall bit rate mode : Variable
Overall bit rate : 8 711 kb/s
Video
ID : 201 (0xC9)
Menu ID : 20101 (0x4E85)
Format : AVC
Format/Info : Advanced Video Codec
Format profile : High@L4
Format settings, CABAC : Yes
Format settings, ReFrames : 4 frames
Codec ID : 27
Duration : 44 min 9 s
Bit rate : 7 893 kb/s
Width : 1 920 pixels
Height : 1 080 pixels
Display aspect ratio : 16:9
Frame rate : 25.000 FPS
Standard : Component
Color space : YUV
Chroma subsampling : 4:2:0
Bit depth : 8 bits
Scan type : Interlaced
Scan type, store method : Separated fields
Scan order : Top Field First
Bits/(Pixel*Frame) : 0.152
Stream size : 2.43 GiB (91%)
Color range : Limited
Color primaries : BT.709
Transfer characteristics : BT.709
Matrix coefficients : BT.709
Audio #1
ID : 301 (0x12D)
Menu ID : 20101 (0x4E85)
Format : MPEG Audio
Format version : Version 1
Format profile : Layer 2
Codec ID : 3
Duration : 44 min 9 s
Bit rate mode : Constant
Bit rate : 192 kb/s
Channel(s) : 2 channels
Sampling rate : 48.0 kHz
Compression mode : Lossy
Delay relative to video : -80 ms
Stream size : 60.6 MiB (2%)
Language : Russian
Audio #2
ID : 302 (0x12E)
Menu ID : 20101 (0x4E85)
Format : MPEG Audio
Format version : Version 1
Format profile : Layer 2
Codec ID : 3
Duration : 44 min 9 s
Bit rate mode : Constant
Bit rate : 192 kb/s
Channel(s) : 2 channels
Sampling rate : 48.0 kHz
Compression mode : Lossy
Delay relative to video : -80 ms
Stream size : 60.6 MiB (2%)
Language : English
[Профиль] [ЛС]
Кто просматривает тему:

Форум Тема Автор Размер
Nat Geo Wild Nat Geo Wild: Амазонская электрическая рыба / Amazon's Electric Fish (Kira Ivanoff) [2015 г., Документальный, научно-популярный, HDTVRip 720p] skorpionN 1.27 GB
Nat Geo Wild Nat Geo Wild: Анаконда: Тихий убийца / Anaconda: Silent Killer (Marion Pullmann) [2014 г., Документальный, природа, флора, фауна, HDTVRip 720p] skorpionN 1.52 GB
Nat Geo Wild Nat Geo Wild: Африканская суперзмея / Africa's Super Snake [2017 г., Документальный, научно-популрный, фауна, флора, HDTVRip-AVC 720p] skorpionN 1.59 GB
Nat Geo Wild Nat Geo Wild: Битва болотных драконов / Battle of the Swamp Dragons (Casey Edlund) [2017 г., Документальный, фауна, HDTVRip 720p] skorpionN 1.6 GB
Nat Geo Wild Nat Geo Wild: В опасных водах Австралии. Обед для акул / Strike force (Лео Фабер) [2010 г., Документальный, флора, фауна, научно-познавательный, исследование, HDTV 1080i] boba88 2.19 GB
Nat Geo Wild Nat Geo Wild: Волчьи горы / The Wolf Mountains (Erik Balaz) [2013 г., Документальный, фауна, флора, HDTVRip 720p] skorpionN 1.53 GB
Nat Geo Wild Nat Geo Wild: Выжить несмотря ни на что / Extreme Survivors (Thomas Harnisch) [2014 г., Документальный, природа, флора, фауна, HDTVRip 720p] skorpionN 1.35 GB
Nat Geo Wild Nat Geo Wild: Дикая Антарктика / Wild Antarctica (Jessica Connell) [2015 г., Документальный, научно-познавательный, HDTVRip-AVC 720p] skorpionN 1.59 GB
Показать сообщения:    

Текущее время: Сегодня 14:49

Часовой пояс: GMT



Вы не можете начинать темы
Вы не можете отвечать на сообщения
Вы не можете редактировать свои сообщения
Вы не можете удалять свои сообщения
Вы не можете голосовать в опросах
Вы не можете прикреплять файлы к сообщениям
Вы не можете скачивать файлы