Nat Geo Wild: Дикая природа Новой Зеландии: затерянный рай / Wild New Zealand. Lost Paradise (Craig Meade) [2017 г., Документальный, научно-популярный, фауна, флора, DVB 1080i]

 
Автор Сообщение

skorpionN ®

Пол:

Стаж: 3 года 6 месяцев

Сообщений: 944



Награды: 4 (Подробнее)

Mega Seeder 2 (Количество: 1) Mega Seeder 1 (Количество: 1) Top Releaser 2 (Количество: 1)
Торрент-статистика

Создавать темы 15-Май-2018 13:45

[Цитировать]

Nat Geo Wild: Дикая природа Новой Зеландии: затерянный рай / Wild New Zealand: Lost Paradise
Год выпуска: 2017
Страна: Новая Зеландия, Natural History New Zealand for National Geographic
Жанр: Документальный, научно-популярный, фауна, флора
Продолжительность: ~00:43:59
Перевод: Профессиональный (одноголосый), студия "Велес", текст читает Дмитрий Стрелков
Режиссер: Craig Meade
Описание: Эволюция животного и растительного мира в своем буйном развитии создала в Новой Зеландии таких редких и необычных представителей дикой природы, которые превратили ее в настоящую заповедную страну, населенную диковинными созданиями.
Качество: DVB
Формат: MPEG
Видео кодек: H.264
Аудио кодек: MPEG Audio
Видео: 1920x1080 (16:9), 25.000 fps, ~7100 Kbps
Аудио 1: (Rus) MPEG Audio 2ch, 48kHz, 192 kbps
Аудио 2: (En) MPEG Audio 2ch, 48kHz, 192 kbps

MediaInfo:

Format : MPEG-TS
File size : 2.42 GiB
Duration : 43 min 58 s
Overall bit rate mode : Variable
Overall bit rate : 7 884 kb/s
Video
ID : 201 (0xC9)
Menu ID : 20101 (0x4E85)
Format : AVC
Format/Info : Advanced Video Codec
Format profile : High@L4
Format settings, CABAC : Yes
Format settings, ReFrames : 4 frames
Codec ID : 27
Duration : 43 min 58 s
Bit rate : 7 107 kb/s
Width : 1 920 pixels
Height : 1 080 pixels
Display aspect ratio : 16:9
Frame rate : 25.000 FPS
Standard : Component
Color space : YUV
Chroma subsampling : 4:2:0
Bit depth : 8 bits
Scan type : Interlaced
Scan type, store method : Separated fields
Scan order : Top Field First
Bits/(Pixel*Frame) : 0.137
Stream size : 2.18 GiB (90%)
Color range : Limited
Color primaries : BT.709
Transfer characteristics : BT.709
Matrix coefficients : BT.709
Audio #1
ID : 301 (0x12D)
Menu ID : 20101 (0x4E85)
Format : MPEG Audio
Format version : Version 1
Format profile : Layer 2
Codec ID : 3
Duration : 43 min 58 s
Bit rate mode : Constant
Bit rate : 192 kb/s
Channel(s) : 2 channels
Sampling rate : 48.0 kHz
Compression mode : Lossy
Stream size : 60.4 MiB (2%)
Language : Russian
Audio #2
ID : 302 (0x12E)
Menu ID : 20101 (0x4E85)
Format : MPEG Audio
Format version : Version 1
Format profile : Layer 2
Codec ID : 3
Duration : 43 min 58 s
Bit rate mode : Constant
Bit rate : 192 kb/s
Channel(s) : 2 channels
Sampling rate : 48.0 kHz
Compression mode : Lossy
Stream size : 60.4 MiB (2%)
Language : English
[Профиль] [ЛС]
Кто просматривает тему:

Форум Тема Автор Размер
Nat Geo Wild Nat Geo Wild: Амазонская электрическая рыба / Amazon's Electric Fish (Kira Ivanoff) [2015 г., Документальный, научно-популярный, HDTVRip 720p] skorpionN 1.27 GB
Nat Geo Wild Nat Geo Wild: Анаконда: Тихий убийца / Anaconda: Silent Killer (Marion Pullmann) [2014 г., Документальный, природа, флора, фауна, HDTVRip 720p] skorpionN 1.52 GB
Nat Geo Wild Nat Geo Wild: Африканская суперзмея / Africa's Super Snake [2017 г., Документальный, научно-популрный, фауна, флора, HDTVRip-AVC 720p] skorpionN 1.59 GB
Nat Geo Wild Nat Geo Wild: Битва болотных драконов / Battle of the Swamp Dragons (Casey Edlund) [2017 г., Документальный, фауна, HDTVRip 720p] skorpionN 1.6 GB
Nat Geo Wild Nat Geo Wild: В опасных водах Австралии. Обед для акул / Strike force (Лео Фабер) [2010 г., Документальный, флора, фауна, научно-познавательный, исследование, HDTV 1080i] boba88 2.19 GB
Nat Geo Wild Nat Geo Wild: Волчьи горы / The Wolf Mountains (Erik Balaz) [2013 г., Документальный, фауна, флора, HDTVRip 720p] skorpionN 1.53 GB
Nat Geo Wild Nat Geo Wild: Выжить несмотря ни на что / Extreme Survivors (Thomas Harnisch) [2014 г., Документальный, природа, флора, фауна, HDTVRip 720p] skorpionN 1.35 GB
Nat Geo Wild Nat Geo Wild: Дикая Антарктика / Wild Antarctica (Jessica Connell) [2015 г., Документальный, научно-познавательный, HDTVRip-AVC 720p] skorpionN 1.59 GB
Показать сообщения:    

Текущее время: Сегодня 15:31

Часовой пояс: GMT



Вы не можете начинать темы
Вы не можете отвечать на сообщения
Вы не можете редактировать свои сообщения
Вы не можете удалять свои сообщения
Вы не можете голосовать в опросах
Вы не можете прикреплять файлы к сообщениям
Вы не можете скачивать файлы