(Hard & Heavy) Motorhead - Stone Deaf Forever! (Anthology, 5CD Boxset) - 2003 [FLAC, tracks+.cue, lossless]

 
Автор Сообщение

sergej644 ®

Пол:

Стаж: 4 года 11 месяцев

Сообщений: 6044

Откуда: Soviet Union



Награды: Нет

Торрент-статистика

Создавать темы 26-Май-2015 15:30

[Цитировать]

-Motorhead / Stone Deaf Forever! (Anthology, 5CD Boxset)-- Год издания: 2003
Страна: UK
Жанр: Hard & Heavy
Продолжительность: 06:19:02-Лейбл издания: Castle Music / Sanctuary Records
Тип альбома: Compilation
Страна-выпуска диска: UK
Формат: FLAC
Битрейт аудио: lossless
Тип рипа: tracks+.cue
Наличие сканов в содержимом раздачи: да
---

треклист

CD 1 (1973 - 1980) || 01:18:06

Номер по каталогу: CMXBX - 747/1

01.Motorhead (03:04)
02.Lost Johnny (03:31)
03.Leavin' Here (02:34)
04.White Line Fever (02:45)
05.The Watcher (04:29)
06.City Kids (03:25)
07.I'm Your Witchdoctor (02:59)
08.Motorhead (03:11)
09.Louie Louie [Peel Session '78] (02:46)
10.Keep Us On The Road [Peel Session '78] (05:18)
11.Tear Ya Down [Peel Session '78] (02:38)
12.I'll Be Your Sister [Peel Session '78] (03:14)
13.Overkill (05:12)
14.Stay Clean (02:41)
15.Capricorn (04:10)
16.Limb From Limb (04:55)
17.Dead Men Tell No Tales (03:06)
18.Stone Dead Forever (04:55)
19.Step Down (03:42)
20.Bomber (03:44)
21.Over The Top (03:19)
22.Shoot You In The Back (02:39)

CD 2 (1980 - 1986) || 01:16:32

Номер по каталогу: CMXBX - 747/2

01.Ace Of Spades (02:49)
02.Bite The Bullet (01:38)
03.The Chase Is Better Than The Catch (04:17)
04.Live To Win [BBC Session '80] (03:35)
05.Like A Nightmare [BBC Session '80] (04:11)
06.Please Don't Touch (02:53)
07.Iron Fist (02:54)
08.Heart Of Stone (03:03)
09.Don't Need Religion (02:42)
10.Shine (03:11)
11.One Track Mind (05:53)
12.I Got Mine (05:23)
13.Snaggletooth (03:50)
14.Under The Knife [Slow Version] (03:49)
15.Ain't My Crime (03:45)
16.Nothing Up My Sleeve (03:14)
17.Killed By Death [BBC Session '86] (05:23)
18.Deaf Forever [BBC Session '86] (04:15)
19.Orgasmatron (Spoken Word) [BBC Session '86] (01:29)
20.Orgasmatron [BBC Session '86] (05:05)
21.Dr. Rock [BBC Session '86] (03:24)

CD 3 (1987 - 1996) || 01:19:08

Номер по каталогу: CMXBX - 747/3

01.Rock 'n' Roll (03:50)
02.Eat The Rich (04:37)
03.Just 'Cos You Got The Power (07:32)
04.Black Leather Jacket [Club X TV 1989] (02:20)
05.No Voices In The Sky (04:14)
06.Going To Brazil (02:31)
07.Love Me Forever (05:29)
08.You Better Run (04:53)
09.I Ain't No Nice Guy (04:16)
10.Hell On Earth [Hellraiser 3 OST] (04:02)
11.Burner (02:55)
12.I Am The Sword (04:28)
13.Bad Woman (03:18)
14.Devils (05:53)
15.Sacrifice (03:18)
16.Sex And Death (02:04)
17.Over Your Shoulder (03:20)
18.Out Of The Sun (03:44)
19.I Don't Believe A Word (06:32)

CD 4 (1990 - 2002) || 01:10:35

Номер по каталогу: CMXBX - 747/4

01.Overnight Sensation (04:11)
02.Broken (04:36)
03.Listen To Your Heart (03:46)
04.Love For Sale (04:55)
05.Snakebite Love (03:31)
06.Take The Blame (04:03)
07.Joy Of Labour (04:53)
08.Orgasmatron 2000 [Internet Download] (06:03)
09.Stay Out Of Jail (03:02)
10.One More Fucking Time (06:47)
11.We Are Motorhead (02:23)
12.Shoot 'Em Down [Twisted Sister Tribute Track] (03:54)
13.Walk A Crooked Mile (05:52)
14.Brave New World (04:04)
15.Mine All Mine (04:13)
16.Voices From The War (04:28)

CD 5 (1978 - 1999) || 01:14:43

Номер по каталогу: CMXBX - 747/5

01.On Parole (05:31)
02.Train Kept A Rollin' (03:05)
03.Too Late Too Late [BBC In Concert] (03:48)
04.(I Won't) Pay Your Price [BBC In Concert] (03:15)
05.Iron Horse (03:46)
06.We Are The Road Crew (03:29)
07.Nadine [Bootleg Version] (03:18)
08.Steal Your Face [BBC In Concert] (04:03)
09.Mean Machine (03:20)
10.No Class (02:39)
11.Stone Deaf In The USA (03:31)
12.Dogs (03:40)
13.Traitor (02:41)
14.Built For Speed (04:55)
15.Acropolis (Metropolis) [Greek 45 Free Single] (03:35)
16.Angel City (03:55)
17.R.A.M.O.N.E.S. (01:15)
18.Silver Machine [Bootleg Version] (04:01)
19.On Your Feet Or On Your Knees (02:37)
20.I'm So Bad, Baby I Don't Care (03:14)
21.Born To Raise Hell (05:17)
--

лог создания рипа

CD 1

Exact Audio Copy V1.0 beta 3 from 29. August 2011
EAC extraction logfile from 26. January 2014, 13:02
Motorhead / Stone Deaf Forever! [Disc 1 of 5]
Used drive  : HL-DT-STDVDRAM GT51N   Adapter: 0  ID: 1
Read mode               : Secure
Utilize accurate stream : Yes
Defeat audio cache      : Yes
Make use of C2 pointers : No
Read offset correction                      : 103
Overread into Lead-In and Lead-Out          : No
Fill up missing offset samples with silence : Yes
Delete leading and trailing silent blocks   : No
Null samples used in CRC calculations       : Yes
Used interface                              : Native Win32 interface for Win NT & 2000
Gap handling                                : Appended to previous track
Used output format              : User Defined Encoder
Selected bitrate                : 896 kBit/s
Quality                         : High
Add ID3 tag                     : No
Command line compressor         : C:\Exact Audio Copy\Flac\flac.EXE
Additional command line options : -8 -V -T "ARTIST=%artist%" -T "TITLE=%title%" -T "ALBUM=%albumtitle%" -T "DATE=%year%" -T "TRACKNUMBER=%tracknr%" -T "TOTALTRACKS=%numtracks%" -T "GENRE=%genre%" -T "ALBUMARTIST=%albumartist%" -T "ALBUM ARTIST=%albumartist%" -T "COMMENT=EAC Secure Mode, Test & Copy, AccurateRip, FLAC -8" %source%
TOC of the extracted CD
     Track |   Start  |  Length  | Start sector | End sector
    ---------------------------------------------------------
        1  |  0:00.00 |  3:03.07 |         0    |    13731
        2  |  3:03.07 |  3:30.58 |     13732    |    29539
        3  |  6:33.65 |  2:33.46 |     29540    |    41060
        4  |  9:07.36 |  2:44.59 |     41061    |    53419
        5  | 11:52.20 |  4:28.11 |     53420    |    73530
        6  | 16:20.31 |  3:24.47 |     73531    |    88877
        7  | 19:45.03 |  2:58.29 |     88878    |   102256
        8  | 22:43.32 |  3:10.24 |    102257    |   116530
        9  | 25:53.56 |  2:45.07 |    116531    |   128912
       10  | 28:38.63 |  5:17.07 |    128913    |   152694
       11  | 33:55.70 |  2:37.10 |    152695    |   164479
       12  | 36:33.05 |  3:13.68 |    164480    |   179022
       13  | 39:46.73 |  5:11.24 |    179023    |   202371
       14  | 44:58.22 |  2:40.41 |    202372    |   214412
       15  | 47:38.63 |  4:09.58 |    214413    |   233145
       16  | 51:48.46 |  4:54.51 |    233146    |   255246
       17  | 56:43.22 |  3:05.54 |    255247    |   269175
       18  | 59:49.01 |  4:54.68 |    269176    |   291293
       19  | 64:43.69 |  3:41.64 |    291294    |   307932
       20  | 68:25.58 |  3:43.16 |    307933    |   324673
       21  | 72:08.74 |  3:18.40 |    324674    |   339563
       22  | 75:27.39 |  2:38.15 |    339564    |   351428
Track  1
     Filename C:\Temp\01 - Hawkwind - Motorhead.wav
     Pre-gap length  0:00:02.00
     Peak level 100.0 %
     Extraction speed 2.9 X
     Track quality 100.0 %
     Test CRC 3DE499FE
     Copy CRC 3DE499FE
     Cannot be verified as accurate (confidence 12)  [571EDC5D], AccurateRip returned [7A7CF080]  (AR v2)
     Copy OK
Track  2
     Filename C:\Temp\02 - Motorhead - Lost Johnny.wav
     Pre-gap length  0:00:01.43
     Peak level 97.7 %
     Extraction speed 3.1 X
     Track quality 100.0 %
     Test CRC 883C60A2
     Copy CRC 883C60A2
     Cannot be verified as accurate (confidence 12)  [8CB869E7], AccurateRip returned [492881B4]  (AR v2)
     Copy OK
Track  3
     Filename C:\Temp\03 - Motorhead - Leavin' Here.wav
     Pre-gap length  0:00:01.40
     Peak level 99.2 %
     Extraction speed 3.1 X
     Track quality 100.0 %
     Test CRC D63897AE
     Copy CRC D63897AE
     Cannot be verified as accurate (confidence 13)  [FEA2AE71], AccurateRip returned [4FE06B77]  (AR v2)
     Copy OK
Track  4
     Filename C:\Temp\04 - Motorhead - White Line Fever.wav
     Pre-gap length  0:00:01.02
     Peak level 99.3 %
     Extraction speed 3.4 X
     Track quality 100.0 %
     Test CRC 97D6DD17
     Copy CRC 97D6DD17
     Cannot be verified as accurate (confidence 13)  [141E9F72], AccurateRip returned [F6C627C4]  (AR v2)
     Copy OK
Track  5
     Filename C:\Temp\05 - Motorhead - The Watcher.wav
     Pre-gap length  0:00:01.42
     Peak level 77.6 %
     Extraction speed 3.8 X
     Track quality 100.0 %
     Test CRC BDBB2008
     Copy CRC BDBB2008
     Cannot be verified as accurate (confidence 13)  [224F1BA7], AccurateRip returned [5CBFBCC3]  (AR v2)
     Copy OK
Track  6
     Filename C:\Temp\06 - Motorhead - City Kids.wav
     Pre-gap length  0:00:01.53
     Peak level 77.4 %
     Extraction speed 3.9 X
     Track quality 100.0 %
     Test CRC A6DEAD29
     Copy CRC A6DEAD29
     Cannot be verified as accurate (confidence 13)  [E9A4FDC4], AccurateRip returned [8FD494C2]  (AR v2)
     Copy OK
Track  7
     Filename C:\Temp\07 - Motorhead - I'm Your Witchdoctor.wav
     Pre-gap length  0:00:01.21
     Peak level 88.0 %
     Extraction speed 4.0 X
     Track quality 100.0 %
     Test CRC 0D124920
     Copy CRC 0D124920
     Cannot be verified as accurate (confidence 13)  [0130C550], AccurateRip returned [3A79A00E]  (AR v2)
     Copy OK
Track  8
     Filename C:\Temp\08 - Motorhead - Motorhead.wav
     Pre-gap length  0:00:00.16
     Peak level 78.3 %
     Extraction speed 4.2 X
     Track quality 100.0 %
     Test CRC D18FB496
     Copy CRC D18FB496
     Cannot be verified as accurate (confidence 13)  [F7AF0383], AccurateRip returned [E1AD236C]  (AR v2)
     Copy OK
Track  9
     Filename C:\Temp\09 - Motorhead - Louie Louie [Peel Session '78].wav
     Pre-gap length  0:00:01.09
     Peak level 100.0 %
     Extraction speed 4.2 X
     Track quality 100.0 %
     Test CRC 5134676D
     Copy CRC 5134676D
     Cannot be verified as accurate (confidence 12)  [1537A9D9], AccurateRip returned [C0C6D190]  (AR v2)
     Copy OK
Track 10
     Filename C:\Temp\10 - Motorhead - Keep Us On The Road [Peel Session '78].wav
     Pre-gap length  0:00:01.12
     Peak level 100.0 %
     Extraction speed 4.8 X
     Track quality 100.0 %
     Test CRC A4F920EC
     Copy CRC A4F920EC
     Cannot be verified as accurate (confidence 12)  [1AFF83D8], AccurateRip returned [CB0C95EA]  (AR v2)
     Copy OK
Track 11
     Filename C:\Temp\11 - Motorhead - Tear Ya Down [Peel Session '78].wav
     Pre-gap length  0:00:00.49
     Peak level 99.7 %
     Extraction speed 4.5 X
     Track quality 100.0 %
     Test CRC 2D571CDA
     Copy CRC 2D571CDA
     Cannot be verified as accurate (confidence 12)  [B7888696], AccurateRip returned [BE802FBD]  (AR v2)
     Copy OK
Track 12
     Filename C:\Temp\12 - Motorhead - I'll Be Your Sister [Peel Session '78].wav
     Pre-gap length  0:00:00.38
     Peak level 99.1 %
     Extraction speed 4.7 X
     Track quality 100.0 %
     Test CRC 6C3CECA2
     Copy CRC 6C3CECA2
     Cannot be verified as accurate (confidence 12)  [039FABF0], AccurateRip returned [3DE6378B]  (AR v2)
     Copy OK
Track 13
     Filename C:\Temp\13 - Motorhead - Overkill.wav
     Pre-gap length  0:00:01.21
     Peak level 89.4 %
     Extraction speed 5.3 X
     Track quality 100.0 %
     Test CRC 79E08D24
     Copy CRC 79E08D24
     Cannot be verified as accurate (confidence 12)  [84AAA95E], AccurateRip returned [FE91EF74]  (AR v2)
     Copy OK
Track 14
     Filename C:\Temp\14 - Motorhead - Stay Clean.wav
     Pre-gap length  0:00:00.60
     Peak level 86.1 %
     Extraction speed 4.9 X
     Track quality 100.0 %
     Test CRC 2E668B55
     Copy CRC 2E668B55
     Cannot be verified as accurate (confidence 12)  [929B3D19], AccurateRip returned [AA8D2AB7]  (AR v2)
     Copy OK
Track 15
     Filename C:\Temp\15 - Motorhead - Capricorn.wav
     Pre-gap length  0:00:01.28
     Peak level 98.1 %
     Extraction speed 5.4 X
     Track quality 100.0 %
     Test CRC 7F5893F5
     Copy CRC 7F5893F5
     Cannot be verified as accurate (confidence 12)  [5017CE40], AccurateRip returned [EEBD7959]  (AR v2)
     Copy OK
Track 16
     Filename C:\Temp\16 - Motorhead - Limb From Limb.wav
     Pre-gap length  0:00:01.28
     Peak level 92.5 %
     Extraction speed 5.7 X
     Track quality 100.0 %
     Test CRC BEB68C5C
     Copy CRC BEB68C5C
     Cannot be verified as accurate (confidence 11)  [D9C0C886], AccurateRip returned [EB92870F]  (AR v2)
     Copy OK
Track 17
     Filename C:\Temp\17 - Motorhead - Dead Men Tell No Tales.wav
     Pre-gap length  0:00:01.06
     Peak level 100.0 %
     Extraction speed 5.6 X
     Track quality 100.0 %
     Test CRC B1AD25E2
     Copy CRC B1AD25E2
     Cannot be verified as accurate (confidence 12)  [74DFCA87], AccurateRip returned [53BFABB0]  (AR v2)
     Copy OK
Track 18
     Filename C:\Temp\18 - Motorhead - Stone Dead Forever.wav
     Pre-gap length  0:00:01.18
     Peak level 100.0 %
     Extraction speed 6.0 X
     Track quality 100.0 %
     Test CRC F1B384A5
     Copy CRC F1B384A5
     Cannot be verified as accurate (confidence 12)  [D3826130], AccurateRip returned [D9C15CC0]  (AR v2)
     Copy OK
Track 19
     Filename C:\Temp\19 - Motorhead - Step Down.wav
     Pre-gap length  0:00:00.52
     Peak level 97.9 %
     Extraction speed 6.0 X
     Track quality 100.0 %
     Test CRC BB45EF42
     Copy CRC BB45EF42
     Cannot be verified as accurate (confidence 12)  [C8AEC3A0], AccurateRip returned [475C07DC]  (AR v2)
     Copy OK
Track 20
     Filename C:\Temp\20 - Motorhead - Bomber.wav
     Pre-gap length  0:00:00.56
     Peak level 100.0 %
     Extraction speed 6.1 X
     Track quality 100.0 %
     Test CRC 7AD767C9
     Copy CRC 7AD767C9
     Cannot be verified as accurate (confidence 12)  [12E3EE11], AccurateRip returned [460AC305]  (AR v2)
     Copy OK
Track 21
     Filename C:\Temp\21 - Motordam - Over The Top.wav
     Pre-gap length  0:00:01.26
     Peak level 87.7 %
     Extraction speed 4.6 X
     Track quality 99.9 %
     Test CRC 61B7FDE9
     Copy CRC 61B7FDE9
     Cannot be verified as accurate (confidence 12)  [8D9AADEA], AccurateRip returned [3E31B54C]  (AR v2)
     Copy OK
Track 22
     Filename C:\Temp\22 - Motorhead - Shoot You In The Back.wav
     Pre-gap length  0:00:01.47
     Peak level 97.3 %
     Extraction speed 5.9 X
     Track quality 100.0 %
     Test CRC E20A1BC2
     Copy CRC E20A1BC2
     Cannot be verified as accurate (confidence 12)  [B80FFF31], AccurateRip returned [ECBB7F8A]  (AR v2)
     Copy OK
No tracks could be verified as accurate
You may have a different pressing from the one(s) in the database
No errors occurred
End of status report

CD 2

Exact Audio Copy V1.0 beta 3 from 29. August 2011
EAC extraction logfile from 26. January 2014, 13:54
Motorhead / Stone Deaf Forever! [Disc 2 of 5]
Used drive  : HL-DT-STDVDRAM GT51N   Adapter: 0  ID: 1
Read mode               : Secure
Utilize accurate stream : Yes
Defeat audio cache      : Yes
Make use of C2 pointers : No
Read offset correction                      : 103
Overread into Lead-In and Lead-Out          : No
Fill up missing offset samples with silence : Yes
Delete leading and trailing silent blocks   : No
Null samples used in CRC calculations       : Yes
Used interface                              : Native Win32 interface for Win NT & 2000
Gap handling                                : Appended to previous track
Used output format              : User Defined Encoder
Selected bitrate                : 896 kBit/s
Quality                         : High
Add ID3 tag                     : No
Command line compressor         : C:\Exact Audio Copy\Flac\flac.EXE
Additional command line options : -8 -V -T "ARTIST=%artist%" -T "TITLE=%title%" -T "ALBUM=%albumtitle%" -T "DATE=%year%" -T "TRACKNUMBER=%tracknr%" -T "TOTALTRACKS=%numtracks%" -T "GENRE=%genre%" -T "ALBUMARTIST=%albumartist%" -T "ALBUM ARTIST=%albumartist%" -T "COMMENT=EAC Secure Mode, Test & Copy, AccurateRip, FLAC -8" %source%
TOC of the extracted CD
     Track |   Start  |  Length  | Start sector | End sector
    ---------------------------------------------------------
        1  |  0:00.00 |  2:48.24 |         0    |    12623
        2  |  2:48.24 |  1:37.71 |     12624    |    19969
        3  |  4:26.20 |  4:16.38 |     19970    |    39207
        4  |  8:42.58 |  3:34.20 |     39208    |    55277
        5  | 12:17.03 |  4:10.63 |     55278    |    74090
        6  | 16:27.66 |  2:52.13 |     74091    |    87003
        7  | 19:20.04 |  2:53.02 |     87004    |    99980
        8  | 22:13.06 |  3:02.68 |     99981    |   113698
        9  | 25:15.74 |  2:41.39 |    113699    |   125812
       10  | 27:57.38 |  3:10.01 |    125813    |   140063
       11  | 31:07.39 |  5:52.59 |    140064    |   166522
       12  | 37:00.23 |  5:22.41 |    166523    |   190713
       13  | 42:22.64 |  3:49.62 |    190714    |   207950
       14  | 46:12.51 |  3:48.39 |    207951    |   225089
       15  | 50:01.15 |  3:44.39 |    225090    |   241928
       16  | 53:45.54 |  3:13.63 |    241929    |   256466
       17  | 56:59.42 |  5:22.06 |    256467    |   280622
       18  | 62:21.48 |  4:14.30 |    280623    |   299702
       19  | 66:36.03 |  1:28.31 |    299703    |   306333
       20  | 68:04.34 |  5:04.24 |    306334    |   329157
       21  | 73:08.58 |  3:23.04 |    329158    |   344386
Track  1
     Filename C:\Temp\01 - Motorhead - Ace Of Spades.wav
     Pre-gap length  0:00:02.00
     Peak level 97.7 %
     Extraction speed 2.2 X
     Track quality 99.9 %
     Test CRC C54EF0E8
     Copy CRC C54EF0E8
     Cannot be verified as accurate (confidence 9)  [1746B9C0], AccurateRip returned [54669F41]  (AR v2)
     Copy OK
Track  2
     Filename C:\Temp\02 - Motorhead - Bite The Bullet.wav
     Pre-gap length  0:00:01.72
     Peak level 97.7 %
     Extraction speed 1.8 X
     Track quality 99.8 %
     Test CRC 2CA27A41
     Copy CRC 2CA27A41
     Cannot be verified as accurate (confidence 9)  [B7F22668], AccurateRip returned [956EF876]  (AR v2)
     Copy OK
Track  3
     Filename C:\Temp\03 - Motorhead - The Chase Is Better Than The Catch.wav
     Peak level 97.7 %
     Extraction speed 3.3 X
     Track quality 100.0 %
     Test CRC 8AD13DB7
     Copy CRC 8AD13DB7
     Cannot be verified as accurate (confidence 10)  [7C44ECB0], AccurateRip returned [C3BC154E]  (AR v2)
     Copy OK
Track  4
     Filename C:\Temp\04 - Motorhead - Live To Win [BBC Session '80].wav
     Pre-gap length  0:00:01.49
     Peak level 97.7 %
     Extraction speed 3.5 X
     Track quality 100.0 %
     Test CRC DE02E958
     Copy CRC DE02E958
     Cannot be verified as accurate (confidence 11)  [7E89C137], AccurateRip returned [B74EBEB1]  (AR v2)
     Copy OK
Track  5
     Filename C:\Temp\05 - Motorhead - Like A Nightmare [BBC Session '80].wav
     Pre-gap length  0:00:02.01
     Peak level 97.7 %
     Extraction speed 3.8 X
     Track quality 100.0 %
     Test CRC 4F56D25E
     Copy CRC 4F56D25E
     Cannot be verified as accurate (confidence 11)  [BD960619], AccurateRip returned [C33085A0]  (AR v2)
     Copy OK
Track  6
     Filename C:\Temp\06 - Headgirl - Please Don't Touch.wav
     Pre-gap length  0:00:01.39
     Peak level 92.1 %
     Extraction speed 3.7 X
     Track quality 100.0 %
     Test CRC A8E86F0C
     Copy CRC A8E86F0C
     Cannot be verified as accurate (confidence 11)  [6FD70FCA], AccurateRip returned [0D688168]  (AR v2)
     Copy OK
Track  7
     Filename C:\Temp\07 - Motorhead - Iron Fist.wav
     Peak level 97.7 %
     Extraction speed 3.9 X
     Track quality 100.0 %
     Test CRC 0B62ACC7
     Copy CRC 0B62ACC7
     Cannot be verified as accurate (confidence 11)  [6E2A3988], AccurateRip returned [E4526331]  (AR v2)
     Copy OK
Track  8
     Filename C:\Temp\08 - Motorhead - Heart Of Stone.wav
     Peak level 97.7 %
     Extraction speed 3.1 X
     Track quality 99.9 %
     Test CRC 04E57CD2
     Copy CRC 04E57CD2
     Cannot be verified as accurate (confidence 11)  [ABDFD367], AccurateRip returned [F4D25716]  (AR v2)
     Copy OK
Track  9
     Filename C:\Temp\09 - Motorhead - Don't Need Religion.wav
     Pre-gap length  0:00:01.14
     Peak level 97.7 %
     Extraction speed 4.1 X
     Track quality 100.0 %
     Test CRC 3143501A
     Copy CRC 3143501A
     Cannot be verified as accurate (confidence 11)  [D12AB94E], AccurateRip returned [19174625]  (AR v2)
     Copy OK
Track 10
     Filename C:\Temp\10 - Motorhead - Shine.wav
     Pre-gap length  0:00:01.23
     Peak level 97.7 %
     Extraction speed 4.4 X
     Track quality 100.0 %
     Test CRC 689B31D3
     Copy CRC 689B31D3
     Cannot be verified as accurate (confidence 11)  [8182CD68], AccurateRip returned [7E01875A]  (AR v2)
     Copy OK
Track 11
     Filename C:\Temp\11 - Motorhead - One Track Mind.wav
     Pre-gap length  0:00:01.20
     Peak level 97.7 %
     Extraction speed 5.0 X
     Track quality 100.0 %
     Test CRC BEDDD050
     Copy CRC BEDDD050
     Cannot be verified as accurate (confidence 11)  [FE34ED3D], AccurateRip returned [D0F66DEF]  (AR v2)
     Copy OK
Track 12
     Filename C:\Temp\12 - Motorhead - I Got Mine.wav
     Pre-gap length  0:00:01.38
     Peak level 97.7 %
     Extraction speed 5.2 X
     Track quality 100.0 %
     Test CRC CCD77C18
     Copy CRC CCD77C18
     Cannot be verified as accurate (confidence 11)  [EC1AE79B], AccurateRip returned [5CDBF764]  (AR v2)
     Copy OK
Track 13
     Filename C:\Temp\13 - Motorhead - Snaggletooth.wav
     Pre-gap length  0:00:01.20
     Peak level 97.7 %
     Extraction speed 5.2 X
     Track quality 100.0 %
     Test CRC 73F4207B
     Copy CRC 73F4207B
     Cannot be verified as accurate (confidence 12)  [E5BA54F1], AccurateRip returned [B6342BBE]  (AR v2)
     Copy OK
Track 14
     Filename C:\Temp\14 - Motorhead - Under The Knife [Slow Version].wav
     Peak level 97.7 %
     Extraction speed 5.4 X
     Track quality 100.0 %
     Test CRC D4379CE9
     Copy CRC D4379CE9
     Cannot be verified as accurate (confidence 12)  [FD299CA7], AccurateRip returned [FDB302D4]  (AR v2)
     Copy OK
Track 15
     Filename C:\Temp\15 - Motorhead - Ain't My Crime.wav
     Pre-gap length  0:00:01.45
     Peak level 97.7 %
     Extraction speed 5.5 X
     Track quality 100.0 %
     Test CRC 8FFA3292
     Copy CRC 8FFA3292
     Cannot be verified as accurate (confidence 11)  [81AFB252], AccurateRip returned [9755194E]  (AR v2)
     Copy OK
Track 16
     Filename C:\Temp\16 - Motorhead - Nothing Up My Sleeve.wav
     Pre-gap length  0:00:01.29
     Peak level 97.7 %
     Extraction speed 4.2 X
     Track quality 99.9 %
     Test CRC 04301375
     Copy CRC 04301375
     Cannot be verified as accurate (confidence 12)  [58C84B50], AccurateRip returned [354A19E5]  (AR v2)
     Copy OK
Track 17
     Filename C:\Temp\17 - Motorhead - Killed By Death [BBC Session '86].wav
     Pre-gap length  0:00:01.44
     Peak level 97.7 %
     Extraction speed 6.0 X
     Track quality 100.0 %
     Test CRC 72222A07
     Copy CRC 72222A07
     Cannot be verified as accurate (confidence 12)  [785BFC68], AccurateRip returned [7EF9514D]  (AR v2)
     Copy OK
Track 18
     Filename C:\Temp\18 - Motorhead - Deaf Forever [BBC Session '86].wav
     Peak level 97.7 %
     Extraction speed 6.0 X
     Track quality 100.0 %
     Test CRC 76A3D876
     Copy CRC 76A3D876
     Cannot be verified as accurate (confidence 12)  [D4F8ACE3], AccurateRip returned [9D09261F]  (AR v2)
     Copy OK
Track 19
     Filename C:\Temp\19 - Motorhead - Orgasmatron (Spoken Word) [BBC Session '86].wav
     Peak level 80.1 %
     Extraction speed 4.9 X
     Track quality 100.0 %
     Test CRC E9D66090
     Copy CRC E9D66090
     Cannot be verified as accurate (confidence 12)  [2576D3CD], AccurateRip returned [231B89BE]  (AR v2)
     Copy OK
Track 20
     Filename C:\Temp\20 - Motorhead - Orgasmatron [BBC Session '86].wav
     Peak level 97.7 %
     Extraction speed 6.3 X
     Track quality 100.0 %
     Test CRC 64B7B4A0
     Copy CRC 64B7B4A0
     Cannot be verified as accurate (confidence 12)  [F6904730], AccurateRip returned [F0F9FFD2]  (AR v2)
     Copy OK
Track 21
     Filename C:\Temp\21 - Motorhead - Dr. Rock [BBC Session '86].wav
     Pre-gap length  0:00:01.30
     Peak level 97.7 %
     Extraction speed 6.2 X
     Track quality 100.0 %
     Test CRC F7928F94
     Copy CRC F7928F94
     Cannot be verified as accurate (confidence 11)  [F966B681], AccurateRip returned [27A21995]  (AR v2)
     Copy OK
No tracks could be verified as accurate
You may have a different pressing from the one(s) in the database
No errors occurred
End of status report

CD 3

Exact Audio Copy V1.0 beta 3 from 29. August 2011
EAC extraction logfile from 26. January 2014, 14:45
Motorhead / Stone Deaf Forever! [Disc 3 of 5]
Used drive  : HL-DT-STDVDRAM GT51N   Adapter: 0  ID: 1
Read mode               : Secure
Utilize accurate stream : Yes
Defeat audio cache      : Yes
Make use of C2 pointers : No
Read offset correction                      : 103
Overread into Lead-In and Lead-Out          : No
Fill up missing offset samples with silence : Yes
Delete leading and trailing silent blocks   : No
Null samples used in CRC calculations       : Yes
Used interface                              : Native Win32 interface for Win NT & 2000
Gap handling                                : Appended to previous track
Used output format              : User Defined Encoder
Selected bitrate                : 896 kBit/s
Quality                         : High
Add ID3 tag                     : No
Command line compressor         : C:\Exact Audio Copy\Flac\flac.EXE
Additional command line options : -8 -V -T "ARTIST=%artist%" -T "TITLE=%title%" -T "ALBUM=%albumtitle%" -T "DATE=%year%" -T "TRACKNUMBER=%tracknr%" -T "TOTALTRACKS=%numtracks%" -T "GENRE=%genre%" -T "ALBUMARTIST=%albumartist%" -T "ALBUM ARTIST=%albumartist%" -T "COMMENT=EAC Secure Mode, Test & Copy, AccurateRip, FLAC -8" %source%
TOC of the extracted CD
     Track |   Start  |  Length  | Start sector | End sector
    ---------------------------------------------------------
        1  |  0:00.00 |  3:49.61 |         0    |    17235
        2  |  3:49.61 |  4:36.60 |     17236    |    37995
        3  |  8:26.46 |  7:31.66 |     37996    |    71886
        4  | 15:58.37 |  2:19.56 |     71887    |    82367
        5  | 18:18.18 |  4:13.30 |     82368    |   101372
        6  | 22:31.48 |  2:30.64 |    101373    |   112686
        7  | 25:02.37 |  5:28.11 |    112687    |   137297
        8  | 30:30.48 |  4:52.12 |    137298    |   159209
        9  | 35:22.60 |  4:15.48 |    159210    |   178382
       10  | 39:38.33 |  4:02.00 |    178383    |   196532
       11  | 43:40.33 |  2:54.09 |    196533    |   209591
       12  | 46:34.42 |  4:27.19 |    209592    |   229635
       13  | 51:01.61 |  3:17.12 |    229636    |   244422
       14  | 54:18.73 |  5:52.57 |    244423    |   270879
       15  | 60:11.55 |  3:17.37 |    270880    |   285691
       16  | 63:29.17 |  2:03.51 |    285692    |   294967
       17  | 65:32.68 |  3:19.19 |    294968    |   309911
       18  | 68:52.12 |  3:43.39 |    309912    |   326675
       19  | 72:35.51 |  6:31.33 |    326676    |   356033
Track  1
     Filename C:\Temp\01 - Rock 'n' Roll.wav
     Pre-gap length  0:00:02.00
     Peak level 97.7 %
     Extraction speed 3.0 X
     Track quality 100.0 %
     Test CRC AF82850B
     Copy CRC AF82850B
     Cannot be verified as accurate (confidence 11)  [9A274610], AccurateRip returned [A517E05A]  (AR v2)
     Copy OK
Track  2
     Filename C:\Temp\02 - Eat The Rich.wav
     Pre-gap length  0:00:01.35
     Peak level 97.7 %
     Extraction speed 3.3 X
     Track quality 100.0 %
     Test CRC 4D143B05
     Copy CRC 4D143B05
     Cannot be verified as accurate (confidence 11)  [CF9A21E4], AccurateRip returned [CDAC5E4D]  (AR v2)
     Copy OK
Track  3
     Filename C:\Temp\03 - Just 'Cos You Got The Power.wav
     Peak level 97.7 %
     Extraction speed 3.5 X
     Track quality 99.9 %
     Test CRC 208EA5A6
     Copy CRC 208EA5A6
     Cannot be verified as accurate (confidence 11)  [8AC34BE6], AccurateRip returned [AF8917EF]  (AR v2)
     Copy OK
Track  4
     Filename C:\Temp\04 - Black Leather Jacket [Club X TV 1989].wav
     Pre-gap length  0:00:01.44
     Peak level 97.7 %
     Extraction speed 2.6 X
     Track quality 99.9 %
     Test CRC 87057C84
     Copy CRC 87057C84
     Cannot be verified as accurate (confidence 11)  [D235C0B3], AccurateRip returned [F4FADBC6]  (AR v2)
     Copy OK
Track  5
     Filename C:\Temp\05 - No Voices In The Sky.wav
     Pre-gap length  0:00:01.18
     Peak level 97.7 %
     Extraction speed 4.1 X
     Track quality 100.0 %
     Test CRC 9E3E7304
     Copy CRC 9E3E7304
     Cannot be verified as accurate (confidence 12)  [1CE7D5E2], AccurateRip returned [423AE3FC]  (AR v2)
     Copy OK
Track  6
     Filename C:\Temp\06 - Going To Brazil.wav
     Peak level 97.7 %
     Extraction speed 4.0 X
     Track quality 100.0 %
     Test CRC 66233DF2
     Copy CRC 66233DF2
     Cannot be verified as accurate (confidence 12)  [295C3D9B], AccurateRip returned [F562D10B]  (AR v2)
     Copy OK
Track  7
     Filename C:\Temp\07 - Love Me Forever.wav
     Pre-gap length  0:00:01.54
     Peak level 97.7 %
     Extraction speed 4.6 X
     Track quality 100.0 %
     Test CRC 07AB3757
     Copy CRC 07AB3757
     Cannot be verified as accurate (confidence 12)  [F3313803], AccurateRip returned [2380F2B9]  (AR v2)
     Copy OK
Track  8
     Filename C:\Temp\08 - You Better Run.wav
     Peak level 81.1 %
     Extraction speed 4.0 X
     Track quality 99.9 %
     Test CRC 29CE0E31
     Copy CRC 29CE0E31
     Cannot be verified as accurate (confidence 12)  [9D329475], AccurateRip returned [7EA9B5E2]  (AR v2)
     Copy OK
Track  9
     Filename C:\Temp\09 - I Ain't No Nice Guy.wav
     Pre-gap length  0:00:01.37
     Peak level 97.7 %
     Extraction speed 4.0 X
     Track quality 99.9 %
     Test CRC 533993DC
     Copy CRC 533993DC
     Cannot be verified as accurate (confidence 12)  [1E3B4DCA], AccurateRip returned [88718D8F]  (AR v2)
     Copy OK
Track 10
     Filename C:\Temp\10 - Hell On Earth [Hellraiser 3 OST].wav
     Pre-gap length  0:00:01.25
     Peak level 97.7 %
     Extraction speed 4.0 X
     Track quality 99.9 %
     Test CRC 67E06E01
     Copy CRC 67E06E01
     Cannot be verified as accurate (confidence 11)  [0C58F987], AccurateRip returned [31EDD41C]  (AR v2)
     Copy OK
Track 11
     Filename C:\Temp\11 - Burner.wav
     Peak level 71.9 %
     Extraction speed 5.0 X
     Track quality 100.0 %
     Test CRC 897D118B
     Copy CRC 897D118B
     Cannot be verified as accurate (confidence 12)  [20F508A0], AccurateRip returned [6870BAB0]  (AR v2)
     Copy OK
Track 12
     Filename C:\Temp\12 - I Am The Sword.wav
     Pre-gap length  0:00:01.66
     Peak level 70.4 %
     Extraction speed 4.4 X
     Track quality 99.9 %
     Test CRC DA428729
     Copy CRC DA428729
     Cannot be verified as accurate (confidence 12)  [9B3785C2], AccurateRip returned [D46209B8]  (AR v2)
     Copy OK
Track 13
     Filename C:\Temp\13 - Bad Woman.wav
     Peak level 71.5 %
     Extraction speed 5.2 X
     Track quality 100.0 %
     Test CRC 56D8A19C
     Copy CRC 56D8A19C
     Cannot be verified as accurate (confidence 12)  [A2BDDF69], AccurateRip returned [E42824B3]  (AR v2)
     Copy OK
Track 14
     Filename C:\Temp\14 - Devils.wav
     Pre-gap length  0:00:01.38
     Peak level 68.8 %
     Extraction speed 5.9 X
     Track quality 100.0 %
     Test CRC 53F4E9FD
     Copy CRC 53F4E9FD
     Cannot be verified as accurate (confidence 12)  [55E035BB], AccurateRip returned [EDB93962]  (AR v2)
     Copy OK
Track 15
     Filename C:\Temp\15 - Sacrifice.wav
     Pre-gap length  0:00:01.01
     Peak level 97.7 %
     Extraction speed 5.5 X
     Track quality 100.0 %
     Test CRC 66D3D662
     Copy CRC 66D3D662
     Cannot be verified as accurate (confidence 12)  [8CDA6B1B], AccurateRip returned [384188C5]  (AR v2)
     Copy OK
Track 16
     Filename C:\Temp\16 - Sex And Death.wav
     Pre-gap length  0:00:01.45
     Peak level 97.7 %
     Extraction speed 5.1 X
     Track quality 100.0 %
     Test CRC CCA26775
     Copy CRC CCA26775
     Cannot be verified as accurate (confidence 12)  [FCA6FBBE], AccurateRip returned [876274A5]  (AR v2)
     Copy OK
Track 17
     Filename C:\Temp\17 - Over Your Shoulder.wav
     Pre-gap length  0:00:01.48
     Peak level 97.7 %
     Extraction speed 5.9 X
     Track quality 100.0 %
     Test CRC 319779F6
     Copy CRC 319779F6
     Cannot be verified as accurate (confidence 12)  [5750D9BD], AccurateRip returned [8EFF94C7]  (AR v2)
     Copy OK
Track 18
     Filename C:\Temp\18 - Out Of The Sun.wav
     Pre-gap length  0:00:01.35
     Peak level 97.7 %
     Extraction speed 6.1 X
     Track quality 100.0 %
     Test CRC 69C41B4F
     Copy CRC 69C41B4F
     Cannot be verified as accurate (confidence 12)  [8BD3230B], AccurateRip returned [4CF0FEB8]  (AR v2)
     Copy OK
Track 19
     Filename C:\Temp\19 - I Don't Believe A Word.wav
     Peak level 84.7 %
     Extraction speed 5.7 X
     Track quality 99.9 %
     Test CRC A4B2091C
     Copy CRC A4B2091C
     Cannot be verified as accurate (confidence 12)  [BDD77F00], AccurateRip returned [F6733DBB]  (AR v2)
     Copy OK
No tracks could be verified as accurate
You may have a different pressing from the one(s) in the database
No errors occurred
End of status report

CD 4

Exact Audio Copy V1.0 beta 3 from 29. August 2011
EAC extraction logfile from 26. January 2014, 16:55
Motorhead / Stone Deaf Forever! [Disc 4 of 5]
Used drive  : HL-DT-STDVDRAM GT51N   Adapter: 0  ID: 1
Read mode               : Secure
Utilize accurate stream : Yes
Defeat audio cache      : Yes
Make use of C2 pointers : No
Read offset correction                      : 103
Overread into Lead-In and Lead-Out          : No
Fill up missing offset samples with silence : Yes
Delete leading and trailing silent blocks   : No
Null samples used in CRC calculations       : Yes
Used interface                              : Native Win32 interface for Win NT & 2000
Gap handling                                : Appended to previous track
Used output format              : User Defined Encoder
Selected bitrate                : 896 kBit/s
Quality                         : High
Add ID3 tag                     : No
Command line compressor         : C:\Exact Audio Copy\Flac\flac.EXE
Additional command line options : -8 -V -T "ARTIST=%artist%" -T "TITLE=%title%" -T "ALBUM=%albumtitle%" -T "DATE=%year%" -T "TRACKNUMBER=%tracknr%" -T "TOTALTRACKS=%numtracks%" -T "GENRE=%genre%" -T "ALBUMARTIST=%albumartist%" -T "ALBUM ARTIST=%albumartist%" -T "COMMENT=EAC Secure Mode, Test & Copy, AccurateRip, FLAC -8" %source%
TOC of the extracted CD
     Track |   Start  |  Length  | Start sector | End sector
    ---------------------------------------------------------
        1  |  0:00.00 |  4:10.33 |         0    |    18782
        2  |  4:10.33 |  4:35.53 |     18783    |    39460
        3  |  8:46.11 |  3:45.68 |     39461    |    56403
        4  | 12:32.04 |  4:54.14 |     56404    |    78467
        5  | 17:26.18 |  3:30.46 |     78468    |    94263
        6  | 20:56.64 |  4:02.30 |     94264    |   112443
        7  | 24:59.19 |  4:52.03 |    112444    |   134346
        8  | 29:51.22 |  6:02.36 |    134347    |   161532
        9  | 35:53.58 |  3:01.73 |    161533    |   175180
       10  | 38:55.56 |  6:46.09 |    175181    |   205639
       11  | 45:41.65 |  2:22.47 |    205640    |   216336
       12  | 48:04.37 |  3:53.64 |    216337    |   233875
       13  | 51:58.26 |  5:51.63 |    233876    |   260263
       14  | 57:50.14 |  4:03.58 |    260264    |   278546
       15  | 61:53.72 |  4:12.26 |    278547    |   297472
       16  | 66:06.23 |  4:27.56 |    297473    |   317553
Track  1
     Filename C:\Temp\01 - Overnight Sensation.wav
     Pre-gap length  0:00:02.00
     Peak level 97.7 %
     Extraction speed 3.0 X
     Track quality 100.0 %
     Test CRC 2F3DBAEA
     Copy CRC 2F3DBAEA
     Cannot be verified as accurate (confidence 11)  [F965445A], AccurateRip returned [2558A35F]  (AR v2)
     Copy OK
Track  2
     Filename C:\Temp\02 - Broken.wav
     Peak level 97.7 %
     Extraction speed 3.3 X
     Track quality 100.0 %
     Test CRC 00AB4778
     Copy CRC 00AB4778
     Cannot be verified as accurate (confidence 11)  [970D808F], AccurateRip returned [DC428E7B]  (AR v2)
     Copy OK
Track  3
     Filename C:\Temp\03 - Listen To Your Heart.wav
     Pre-gap length  0:00:01.27
     Peak level 97.7 %
     Extraction speed 3.5 X
     Track quality 100.0 %
     Test CRC 4928CE82
     Copy CRC 4928CE82
     Cannot be verified as accurate (confidence 11)  [D66A4BEB], AccurateRip returned [34A4DAAD]  (AR v2)
     Copy OK
Track  4
     Filename C:\Temp\04 - Love For Sale.wav
     Peak level 93.2 %
     Extraction speed 3.9 X
     Track quality 100.0 %
     Test CRC 2B0D6317
     Copy CRC 2B0D6317
     Cannot be verified as accurate (confidence 11)  [D80ED3AC], AccurateRip returned [87A50A13]  (AR v2)
     Copy OK
Track  5
     Filename C:\Temp\05 - Snakebite Love.wav
     Pre-gap length  0:00:01.48
     Peak level 97.7 %
     Extraction speed 4.0 X
     Track quality 100.0 %
     Test CRC 3F471C7F
     Copy CRC 3F471C7F
     Cannot be verified as accurate (confidence 11)  [D174A692], AccurateRip returned [E264517A]  (AR v2)
     Copy OK
Track  6
     Filename C:\Temp\06 - Take The Blame.wav
     Peak level 97.7 %
     Extraction speed 4.2 X
     Track quality 100.0 %
     Test CRC E5A43133
     Copy CRC E5A43133
     Cannot be verified as accurate (confidence 11)  [6F52324D], AccurateRip returned [CF0A1983]  (AR v2)
     Copy OK
Track  7
     Filename C:\Temp\07 - Joy Of Labour.wav
     Peak level 97.7 %
     Extraction speed 4.6 X
     Track quality 100.0 %
     Test CRC CF3972D2
     Copy CRC CF3972D2
     Cannot be verified as accurate (confidence 11)  [C4E3551C], AccurateRip returned [7FFCFDA9]  (AR v2)
     Copy OK
Track  8
     Filename C:\Temp\08 - Orgasmatron 2000 [Internet Download].wav
     Peak level 97.7 %
     Extraction speed 4.9 X
     Track quality 100.0 %
     Test CRC 09FE8D6B
     Copy CRC 09FE8D6B
     Cannot be verified as accurate (confidence 10)  [88120504], AccurateRip returned [490AA7F8]  (AR v2)
     Copy OK
Track  9
     Filename C:\Temp\09 - Stay Out Of Jail.wav
     Pre-gap length  0:00:01.46
     Peak level 97.7 %
     Extraction speed 4.7 X
     Track quality 100.0 %
     Test CRC AE8942FA
     Copy CRC AE8942FA
     Cannot be verified as accurate (confidence 11)  [CCB58604], AccurateRip returned [47C6079C]  (AR v2)
     Copy OK
Track 10
     Filename C:\Temp\10 - One More Fucking Time.wav
     Pre-gap length  0:00:01.35
     Peak level 97.7 %
     Extraction speed 5.5 X
     Track quality 100.0 %
     Test CRC E1B9DF30
     Copy CRC E1B9DF30
     Cannot be verified as accurate (confidence 11)  [64C2F9E5], AccurateRip returned [7B922E19]  (AR v2)
     Copy OK
Track 11
     Filename C:\Temp\11 - We Are Motorhead.wav
     Pre-gap length  0:00:01.50
     Peak level 97.7 %
     Extraction speed 4.8 X
     Track quality 100.0 %
     Test CRC EAE98C85
     Copy CRC EAE98C85
     Cannot be verified as accurate (confidence 11)  [34ED50E3], AccurateRip returned [7E94EE1F]  (AR v2)
     Copy OK
Track 12
     Filename C:\Temp\12 - Shoot 'Em Down [Twisted Sister Tribute Track].wav
     Pre-gap length  0:00:01.47
     Peak level 97.7 %
     Extraction speed 5.5 X
     Track quality 100.0 %
     Test CRC 3D984655
     Copy CRC 3D984655
     Cannot be verified as accurate (confidence 11)  [36446D92], AccurateRip returned [3CE69206]  (AR v2)
     Copy OK
Track 13
     Filename C:\Temp\13 - Walk A Crooked Mile.wav
     Pre-gap length  0:00:01.21
     Peak level 97.7 %
     Extraction speed 5.9 X
     Track quality 100.0 %
     Test CRC 63695AD5
     Copy CRC 63695AD5
     Cannot be verified as accurate (confidence 10)  [0924A790], AccurateRip returned [18285C9A]  (AR v2)
     Copy OK
Track 14
     Filename C:\Temp\14 - Brave New World.wav
     Pre-gap length  0:00:01.47
     Peak level 97.7 %
     Extraction speed 5.9 X
     Track quality 100.0 %
     Test CRC 4F102FA0
     Copy CRC 4F102FA0
     Cannot be verified as accurate (confidence 10)  [469996CE], AccurateRip returned [55D46CEA]  (AR v2)
     Copy OK
Track 15
     Filename C:\Temp\15 - Mine All Mine.wav
     Pre-gap length  0:00:01.13
     Peak level 97.7 %
     Extraction speed 6.1 X
     Track quality 100.0 %
     Test CRC 19FC4FFD
     Copy CRC 19FC4FFD
     Cannot be verified as accurate (confidence 10)  [45C8B9C8], AccurateRip returned [745B6A27]  (AR v2)
     Copy OK
Track 16
     Filename C:\Temp\16 - Voices From The War.wav
     Peak level 97.7 %
     Extraction speed 6.2 X
     Track quality 100.0 %
     Test CRC 61D49754
     Copy CRC 61D49754
     Cannot be verified as accurate (confidence 9)  [129B5981], AccurateRip returned [2B98FF55]  (AR v2)
     Copy OK
No tracks could be verified as accurate
You may have a different pressing from the one(s) in the database
No errors occurred
End of status report

CD 5

Exact Audio Copy V1.0 beta 3 from 29. August 2011
EAC extraction logfile from 26. January 2014, 16:11
Motorhead / Stone Deaf Forever! [Disc 5 of 5]
Used drive  : HL-DT-STDVDRAM GT51N   Adapter: 0  ID: 1
Read mode               : Secure
Utilize accurate stream : Yes
Defeat audio cache      : Yes
Make use of C2 pointers : No
Read offset correction                      : 103
Overread into Lead-In and Lead-Out          : No
Fill up missing offset samples with silence : Yes
Delete leading and trailing silent blocks   : No
Null samples used in CRC calculations       : Yes
Used interface                              : Native Win32 interface for Win NT & 2000
Gap handling                                : Appended to previous track
Used output format              : User Defined Encoder
Selected bitrate                : 896 kBit/s
Quality                         : High
Add ID3 tag                     : No
Command line compressor         : C:\Exact Audio Copy\Flac\flac.EXE
Additional command line options : -8 -V -T "ARTIST=%artist%" -T "TITLE=%title%" -T "ALBUM=%albumtitle%" -T "DATE=%year%" -T "TRACKNUMBER=%tracknr%" -T "TOTALTRACKS=%numtracks%" -T "GENRE=%genre%" -T "ALBUMARTIST=%albumartist%" -T "ALBUM ARTIST=%albumartist%" -T "COMMENT=EAC Secure Mode, Test & Copy, AccurateRip, FLAC -8" %source%
TOC of the extracted CD
     Track |   Start  |  Length  | Start sector | End sector
    ---------------------------------------------------------
        1  |  0:00.00 |  5:30.48 |         0    |    24797
        2  |  5:30.48 |  3:04.08 |     24798    |    38605
        3  |  8:34.56 |  3:47.49 |     38606    |    55679
        4  | 12:22.30 |  3:14.28 |     55680    |    70257
        5  | 15:36.58 |  3:45.52 |     70258    |    87184
        6  | 19:22.35 |  3:28.49 |     87185    |   102833
        7  | 22:51.09 |  3:17.12 |    102834    |   117620
        8  | 26:08.21 |  4:02.63 |    117621    |   135833
        9  | 30:11.09 |  3:19.25 |    135834    |   150783
       10  | 33:30.34 |  2:38.62 |    150784    |   162695
       11  | 36:09.21 |  3:30.11 |    162696    |   178456
       12  | 39:39.32 |  3:39.02 |    178457    |   194883
       13  | 43:18.34 |  2:40.11 |    194884    |   206894
       14  | 45:58.45 |  4:54.57 |    206895    |   229001
       15  | 50:53.27 |  3:34.19 |    229002    |   245070
       16  | 54:27.46 |  3:54.23 |    245071    |   262643
       17  | 58:21.69 |  1:14.48 |    262644    |   268241
       18  | 59:36.42 |  4:00.18 |    268242    |   286259
       19  | 63:36.60 |  2:36.19 |    286260    |   297978
       20  | 66:13.04 |  3:13.03 |    297979    |   312456
       21  | 69:26.07 |  5:16.43 |    312457    |   336199
Track  1
     Filename C:\Temp\01 - On Parole.wav
     Pre-gap length  0:00:02.00
     Peak level 97.5 %
     Extraction speed 2.7 X
     Track quality 99.9 %
     Test CRC 2757EC91
     Copy CRC 2757EC91
     Cannot be verified as accurate (confidence 11)  [B5B6B617], AccurateRip returned [89EF5A3D]  (AR v2)
     Copy OK
Track  2
     Filename C:\Temp\02 - Train Kept A Rollin'.wav
     Pre-gap length  0:00:01.64
     Peak level 98.7 %
     Extraction speed 3.2 X
     Track quality 100.0 %
     Test CRC 62825CF4
     Copy CRC 62825CF4
     Cannot be verified as accurate (confidence 11)  [C689A3CC], AccurateRip returned [421324CD]  (AR v2)
     Copy OK
Track  3
     Filename C:\Temp\03 - Too Late Too Late [BBC In Concert].wav
     Pre-gap length  0:00:01.54
     Peak level 98.5 %
     Extraction speed 3.5 X
     Track quality 100.0 %
     Test CRC 060D2D49
     Copy CRC 060D2D49
     Cannot be verified as accurate (confidence 11)  [D45BE4E0], AccurateRip returned [858BB383]  (AR v2)
     Copy OK
Track  4
     Filename C:\Temp\04 - (I Won't) Pay Your Price [BBC In Concert].wav
     Peak level 98.2 %
     Extraction speed 3.6 X
     Track quality 100.0 %
     Test CRC 9BE3B04A
     Copy CRC 9BE3B04A
     Cannot be verified as accurate (confidence 11)  [854BE6B5], AccurateRip returned [CE4B2709]  (AR v2)
     Copy OK
Track  5
     Filename C:\Temp\05 - Iron Horse.wav
     Pre-gap length  0:00:01.15
     Peak level 97.7 %
     Extraction speed 3.9 X
     Track quality 100.0 %
     Test CRC 9C91A65E
     Copy CRC 9C91A65E
     Cannot be verified as accurate (confidence 11)  [599A8BAF], AccurateRip returned [F30A84AC]  (AR v2)
     Copy OK
Track  6
     Filename C:\Temp\06 - We Are The Road Crew.wav
     Peak level 97.6 %
     Extraction speed 4.1 X
     Track quality 100.0 %
     Test CRC 62008E09
     Copy CRC 62008E09
     Cannot be verified as accurate (confidence 11)  [7D9EB4ED], AccurateRip returned [53977B3C]  (AR v2)
     Copy OK
Track  7
     Filename C:\Temp\07 - Nadine [Bootleg Version].wav
     Pre-gap length  0:00:01.19
     Peak level 100.0 %
     Extraction speed 4.2 X
     Track quality 100.0 %
     Test CRC 2B6F2C2C
     Copy CRC 2B6F2C2C
     Cannot be verified as accurate (confidence 11)  [21396ABA], AccurateRip returned [5CF17202]  (AR v2)
     Copy OK
Track  8
     Filename C:\Temp\08 - Steal Your Face [BBC In Concert].wav
     Pre-gap length  0:00:01.19
     Peak level 99.8 %
     Extraction speed 4.6 X
     Track quality 100.0 %
     Test CRC F53C381A
     Copy CRC F53C381A
     Cannot be verified as accurate (confidence 11)  [1FC968E9], AccurateRip returned [39070F42]  (AR v2)
     Copy OK
Track  9
     Filename C:\Temp\09 - Mean Machine.wav
     Peak level 100.0 %
     Extraction speed 4.6 X
     Track quality 100.0 %
     Test CRC 6D50139D
     Copy CRC 6D50139D
     Cannot be verified as accurate (confidence 11)  [92CBA320], AccurateRip returned [6774E4BA]  (AR v2)
     Copy OK
Track 10
     Filename C:\Temp\10 - No Class.wav
     Peak level 100.0 %
     Extraction speed 4.6 X
     Track quality 100.0 %
     Test CRC BF1A20C4
     Copy CRC BF1A20C4
     Cannot be verified as accurate (confidence 11)  [8336A4E6], AccurateRip returned [CC29F6E4]  (AR v2)
     Copy OK
Track 11
     Filename C:\Temp\11 - Stone Deaf In The USA.wav
     Peak level 100.0 %
     Extraction speed 3.8 X
     Track quality 99.9 %
     Test CRC 890F86C2
     Copy CRC 890F86C2
     Cannot be verified as accurate (confidence 11)  [F3F9456E], AccurateRip returned [ECF7FE62]  (AR v2)
     Copy OK
Track 12
     Filename C:\Temp\12 - Dogs.wav
     Peak level 99.2 %
     Extraction speed 5.0 X
     Track quality 100.0 %
     Test CRC 37050FD5
     Copy CRC 37050FD5
     Cannot be verified as accurate (confidence 11)  [B1BB44E0], AccurateRip returned [E95E9B75]  (AR v2)
     Copy OK
Track 13
     Filename C:\Temp\13 - Traitor.wav
     Peak level 100.0 %
     Extraction speed 4.9 X
     Track quality 100.0 %
     Test CRC 9AB6613B
     Copy CRC 9AB6613B
     Cannot be verified as accurate (confidence 11)  [905EC40E], AccurateRip returned [F55F06A9]  (AR v2)
     Copy OK
Track 14
     Filename C:\Temp\14 - Built For Speed.wav
     Peak level 100.0 %
     Extraction speed 5.5 X
     Track quality 100.0 %
     Test CRC 063E88A1
     Copy CRC 063E88A1
     Cannot be verified as accurate (confidence 11)  [52FBB039], AccurateRip returned [73C34A55]  (AR v2)
     Copy OK
Track 15
     Filename C:\Temp\15 - Acropolis (Metropolis) [Greek 45 Free Single].wav
     Pre-gap length  0:00:01.58
     Peak level 99.7 %
     Extraction speed 5.5 X
     Track quality 100.0 %
     Test CRC B855135D
     Copy CRC B855135D
     Cannot be verified as accurate (confidence 11)  [90A9DF53], AccurateRip returned [B9064D5C]  (AR v2)
     Copy OK
Track 16
     Filename C:\Temp\16 - Angel City.wav
     Pre-gap length  0:00:01.46
     Peak level 99.2 %
     Extraction speed 5.6 X
     Track quality 100.0 %
     Test CRC F4CD1529
     Copy CRC F4CD1529
     Cannot be verified as accurate (confidence 11)  [06C4366C], AccurateRip returned [C4D64597]  (AR v2)
     Copy OK
Track 17
     Filename C:\Temp\17 - R.A.M.O.N.E.S..wav
     Peak level 99.0 %
     Extraction speed 4.2 X
     Track quality 100.0 %
     Test CRC BF770987
     Copy CRC BF770987
     Cannot be verified as accurate (confidence 11)  [790F8345], AccurateRip returned [503CA18E]  (AR v2)
     Copy OK
Track 18
     Filename C:\Temp\18 - Silver Machine [Bootleg Version].wav
     Pre-gap length  0:00:01.13
     Peak level 98.8 %
     Extraction speed 5.8 X
     Track quality 100.0 %
     Test CRC 0CB9F80F
     Copy CRC 0CB9F80F
     Cannot be verified as accurate (confidence 11)  [D6411081], AccurateRip returned [826CC4BC]  (AR v2)
     Copy OK
Track 19
     Filename C:\Temp\19 - On Your Feet Or On Your Knees.wav
     Pre-gap length  0:00:01.10
     Peak level 96.8 %
     Extraction speed 5.5 X
     Track quality 100.0 %
     Test CRC B36E3B4C
     Copy CRC B36E3B4C
     Cannot be verified as accurate (confidence 11)  [1682186F], AccurateRip returned [21D5C2CB]  (AR v2)
     Copy OK
Track 20
     Filename C:\Temp\20 - I'm So Bad, Baby I Don't Care.wav
     Peak level 97.8 %
     Extraction speed 5.9 X
     Track quality 100.0 %
     Test CRC 43DA3F53
     Copy CRC 43DA3F53
     Cannot be verified as accurate (confidence 11)  [63C555A5], AccurateRip returned [5CE4762F]  (AR v2)
     Copy OK
Track 21
     Filename C:\Temp\21 - Born To Raise Hell.wav
     Peak level 98.3 %
     Extraction speed 6.5 X
     Track quality 100.0 %
     Test CRC FD9C0FEA
     Copy CRC FD9C0FEA
     Cannot be verified as accurate (confidence 9)  [CA268C37], AccurateRip returned [3A53D812]  (AR v2)
     Copy OK
No tracks could be verified as accurate
You may have a different pressing from the one(s) in the database
No errors occurred
End of status report

содержание индексной карты *cue

CD 1

REM GENRE "Hard Rock"
REM DATE 2003
REM DISCID 3D124D16
REM COMMENT "ExactAudioCopy v1.0b3"
PERFORMER "Motorhead"
TITLE "Stone Deaf Forever! [Disc 1 of 5]"
FILE "01 - Hawkwind - Motorhead.wav" WAVE
  TRACK 01 AUDIO
    TITLE "Motorhead"
    PERFORMER "Hawkwind"
    INDEX 01 00:00:00
  TRACK 02 AUDIO
    TITLE "Lost Johnny"
    PERFORMER "Motorhead"
    INDEX 00 03:01:39
FILE "02 - Motorhead - Lost Johnny.wav" WAVE
    INDEX 01 00:00:00
  TRACK 03 AUDIO
    TITLE "Leavin' Here"
    PERFORMER "Motorhead"
    INDEX 00 03:29:18
FILE "03 - Motorhead - Leavin' Here.wav" WAVE
    INDEX 01 00:00:00
  TRACK 04 AUDIO
    TITLE "White Line Fever"
    PERFORMER "Motorhead"
    INDEX 00 02:32:44
FILE "04 - Motorhead - White Line Fever.wav" WAVE
    INDEX 01 00:00:00
  TRACK 05 AUDIO
    TITLE "The Watcher"
    PERFORMER "Motorhead"
    INDEX 00 02:43:17
FILE "05 - Motorhead - The Watcher.wav" WAVE
    INDEX 01 00:00:00
  TRACK 06 AUDIO
    TITLE "City Kids"
    PERFORMER "Motorhead"
    INDEX 00 04:26:33
FILE "06 - Motorhead - City Kids.wav" WAVE
    INDEX 01 00:00:00
  TRACK 07 AUDIO
    TITLE "I'm Your Witchdoctor"
    PERFORMER "Motorhead"
    INDEX 00 03:23:26
FILE "07 - Motorhead - I'm Your Witchdoctor.wav" WAVE
    INDEX 01 00:00:00
  TRACK 08 AUDIO
    TITLE "Motorhead"
    PERFORMER "Motorhead"
    INDEX 00 02:58:13
FILE "08 - Motorhead - Motorhead.wav" WAVE
    INDEX 01 00:00:00
  TRACK 09 AUDIO
    TITLE "Louie Louie [Peel Session '78]"
    PERFORMER "Motorhead"
    INDEX 00 03:09:15
FILE "09 - Motorhead - Louie Louie [Peel Session '78].wav" WAVE
    INDEX 01 00:00:00
  TRACK 10 AUDIO
    TITLE "Keep Us On The Road [Peel Session '78]"
    PERFORMER "Motorhead"
    INDEX 00 02:43:70
FILE "10 - Motorhead - Keep Us On The Road [Peel Session '78].wav" WAVE
    INDEX 01 00:00:00
  TRACK 11 AUDIO
    TITLE "Tear Ya Down [Peel Session '78]"
    PERFORMER "Motorhead"
    INDEX 00 05:16:33
FILE "11 - Motorhead - Tear Ya Down [Peel Session '78].wav" WAVE
    INDEX 01 00:00:00
  TRACK 12 AUDIO
    TITLE "I'll Be Your Sister [Peel Session '78]"
    PERFORMER "Motorhead"
    INDEX 00 02:36:47
FILE "12 - Motorhead - I'll Be Your Sister [Peel Session '78].wav" WAVE
    INDEX 01 00:00:00
  TRACK 13 AUDIO
    TITLE "Overkill"
    PERFORMER "Motorhead"
    INDEX 00 03:12:47
FILE "13 - Motorhead - Overkill.wav" WAVE
    INDEX 01 00:00:00
  TRACK 14 AUDIO
    TITLE "Stay Clean"
    PERFORMER "Motorhead"
    INDEX 00 05:10:39
FILE "14 - Motorhead - Stay Clean.wav" WAVE
    INDEX 01 00:00:00
  TRACK 15 AUDIO
    TITLE "Capricorn"
    PERFORMER "Motorhead"
    INDEX 00 02:39:13
FILE "15 - Motorhead - Capricorn.wav" WAVE
    INDEX 01 00:00:00
  TRACK 16 AUDIO
    TITLE "Limb From Limb"
    PERFORMER "Motorhead"
    INDEX 00 04:08:30
FILE "16 - Motorhead - Limb From Limb.wav" WAVE
    INDEX 01 00:00:00
  TRACK 17 AUDIO
    TITLE "Dead Men Tell No Tales"
    PERFORMER "Motorhead"
    INDEX 00 04:53:45
FILE "17 - Motorhead - Dead Men Tell No Tales.wav" WAVE
    INDEX 01 00:00:00
  TRACK 18 AUDIO
    TITLE "Stone Dead Forever"
    PERFORMER "Motorhead"
    INDEX 00 03:04:36
FILE "18 - Motorhead - Stone Dead Forever.wav" WAVE
    INDEX 01 00:00:00
  TRACK 19 AUDIO
    TITLE "Step Down"
    PERFORMER "Motorhead"
    INDEX 00 04:54:16
FILE "19 - Motorhead - Step Down.wav" WAVE
    INDEX 01 00:00:00
  TRACK 20 AUDIO
    TITLE "Bomber"
    PERFORMER "Motorhead"
    INDEX 00 03:41:08
FILE "20 - Motorhead - Bomber.wav" WAVE
    INDEX 01 00:00:00
  TRACK 21 AUDIO
    TITLE "Over The Top"
    PERFORMER "Motordam"
    INDEX 00 03:41:65
FILE "21 - Motordam - Over The Top.wav" WAVE
    INDEX 01 00:00:00
  TRACK 22 AUDIO
    TITLE "Shoot You In The Back"
    PERFORMER "Motorhead"
    INDEX 00 03:16:68
FILE "22 - Motorhead - Shoot You In The Back.wav" WAVE
    INDEX 01 00:00:00

CD 2

REM GENRE "Hard Rock"
REM DATE 2003
REM DISCID 3F11EF15
REM COMMENT "ExactAudioCopy v1.0b3"
PERFORMER "Motorhead"
TITLE "Stone Deaf Forever! [Disc 2 of 5]"
FILE "01 - Motorhead - Ace Of Spades.wav" WAVE
  TRACK 01 AUDIO
    TITLE "Ace Of Spades"
    PERFORMER "Motorhead"
    INDEX 01 00:00:00
  TRACK 02 AUDIO
    TITLE "Bite The Bullet"
    PERFORMER "Motorhead"
    INDEX 00 02:46:27
FILE "02 - Motorhead - Bite The Bullet.wav" WAVE
    INDEX 01 00:00:00
FILE "03 - Motorhead - The Chase Is Better Than The Catch.wav" WAVE
  TRACK 03 AUDIO
    TITLE "The Chase Is Better Than The Catch"
    PERFORMER "Motorhead"
    INDEX 01 00:00:00
  TRACK 04 AUDIO
    TITLE "Live To Win [BBC Session '80]"
    PERFORMER "Motorhead"
    INDEX 00 04:14:64
FILE "04 - Motorhead - Live To Win [BBC Session '80].wav" WAVE
    INDEX 01 00:00:00
  TRACK 05 AUDIO
    TITLE "Like A Nightmare [BBC Session '80]"
    PERFORMER "Motorhead"
    INDEX 00 03:32:19
FILE "05 - Motorhead - Like A Nightmare [BBC Session '80].wav" WAVE
    INDEX 01 00:00:00
  TRACK 06 AUDIO
    TITLE "Please Don't Touch"
    PERFORMER "Headgirl"
    INDEX 00 04:09:24
FILE "06 - Headgirl - Please Don't Touch.wav" WAVE
    INDEX 01 00:00:00
FILE "07 - Motorhead - Iron Fist.wav" WAVE
  TRACK 07 AUDIO
    TITLE "Iron Fist"
    PERFORMER "Motorhead"
    INDEX 01 00:00:00
FILE "08 - Motorhead - Heart Of Stone.wav" WAVE
  TRACK 08 AUDIO
    TITLE "Heart Of Stone"
    PERFORMER "Motorhead"
    INDEX 01 00:00:00
  TRACK 09 AUDIO
    TITLE "Don't Need Religion"
    PERFORMER "Motorhead"
    INDEX 00 03:01:54
FILE "09 - Motorhead - Don't Need Religion.wav" WAVE
    INDEX 01 00:00:00
  TRACK 10 AUDIO
    TITLE "Shine"
    PERFORMER "Motorhead"
    INDEX 00 02:40:16
FILE "10 - Motorhead - Shine.wav" WAVE
    INDEX 01 00:00:00
  TRACK 11 AUDIO
    TITLE "One Track Mind"
    PERFORMER "Motorhead"
    INDEX 00 03:08:56
FILE "11 - Motorhead - One Track Mind.wav" WAVE
    INDEX 01 00:00:00
  TRACK 12 AUDIO
    TITLE "I Got Mine"
    PERFORMER "Motorhead"
    INDEX 00 05:51:21
FILE "12 - Motorhead - I Got Mine.wav" WAVE
    INDEX 01 00:00:00
  TRACK 13 AUDIO
    TITLE "Snaggletooth"
    PERFORMER "Motorhead"
    INDEX 00 05:21:21
FILE "13 - Motorhead - Snaggletooth.wav" WAVE
    INDEX 01 00:00:00
FILE "14 - Motorhead - Under The Knife [Slow Version].wav" WAVE
  TRACK 14 AUDIO
    TITLE "Under The Knife [Slow Version]"
    PERFORMER "Motorhead"
    INDEX 01 00:00:00
  TRACK 15 AUDIO
    TITLE "Ain't My Crime"
    PERFORMER "Motorhead"
    INDEX 00 03:46:69
FILE "15 - Motorhead - Ain't My Crime.wav" WAVE
    INDEX 01 00:00:00
  TRACK 16 AUDIO
    TITLE "Nothing Up My Sleeve"
    PERFORMER "Motorhead"
    INDEX 00 03:43:10
FILE "16 - Motorhead - Nothing Up My Sleeve.wav" WAVE
    INDEX 01 00:00:00
  TRACK 17 AUDIO
    TITLE "Killed By Death [BBC Session '86]"
    PERFORMER "Motorhead"
    INDEX 00 03:12:19
FILE "17 - Motorhead - Killed By Death [BBC Session '86].wav" WAVE
    INDEX 01 00:00:00
FILE "18 - Motorhead - Deaf Forever [BBC Session '86].wav" WAVE
  TRACK 18 AUDIO
    TITLE "Deaf Forever [BBC Session '86]"
    PERFORMER "Motorhead"
    INDEX 01 00:00:00
FILE "19 - Motorhead - Orgasmatron (Spoken Word) [BBC Session '86].wav" WAVE
  TRACK 19 AUDIO
    TITLE "Orgasmatron (Spoken Word) [BBC Session '86]"
    PERFORMER "Motorhead"
    INDEX 01 00:00:00
FILE "20 - Motorhead - Orgasmatron [BBC Session '86].wav" WAVE
  TRACK 20 AUDIO
    TITLE "Orgasmatron [BBC Session '86]"
    PERFORMER "Motorhead"
    INDEX 01 00:00:00
  TRACK 21 AUDIO
    TITLE "Dr. Rock [BBC Session '86]"
    PERFORMER "Motorhead"
    INDEX 00 05:02:69
FILE "21 - Motorhead - Dr. Rock [BBC Session '86].wav" WAVE
    INDEX 01 00:00:00

CD 3

REM GENRE "Hard Rock"
REM DATE 2003
REM DISCID E7128B13
REM COMMENT "ExactAudioCopy v1.0b3"
PERFORMER "Motorhead"
TITLE "Stone Deaf Forever! [Disc 3 of 5]"
FILE "01 - Rock 'n' Roll.wav" WAVE
  TRACK 01 AUDIO
    TITLE "Rock 'n' Roll"
    PERFORMER "Motorhead"
    INDEX 01 00:00:00
  TRACK 02 AUDIO
    TITLE "Eat The Rich"
    PERFORMER "Motorhead"
    INDEX 00 03:48:26
FILE "02 - Eat The Rich.wav" WAVE
    INDEX 01 00:00:00
FILE "03 - Just 'Cos You Got The Power.wav" WAVE
  TRACK 03 AUDIO
    TITLE "Just 'Cos You Got The Power"
    PERFORMER "Motorhead"
    INDEX 01 00:00:00
  TRACK 04 AUDIO
    TITLE "Black Leather Jacket [Club X TV 1989]"
    PERFORMER "Motorhead"
    INDEX 00 07:30:22
FILE "04 - Black Leather Jacket [Club X TV 1989].wav" WAVE
    INDEX 01 00:00:00
  TRACK 05 AUDIO
    TITLE "No Voices In The Sky"
    PERFORMER "Motorhead"
    INDEX 00 02:18:38
FILE "05 - No Voices In The Sky.wav" WAVE
    INDEX 01 00:00:00
FILE "06 - Going To Brazil.wav" WAVE
  TRACK 06 AUDIO
    TITLE "Going To Brazil"
    PERFORMER "Motorhead"
    INDEX 01 00:00:00
  TRACK 07 AUDIO
    TITLE "Love Me Forever"
    PERFORMER "Motorhead"
    INDEX 00 02:29:10
FILE "07 - Love Me Forever.wav" WAVE
    INDEX 01 00:00:00
FILE "08 - You Better Run.wav" WAVE
  TRACK 08 AUDIO
    TITLE "You Better Run"
    PERFORMER "Motorhead"
    INDEX 01 00:00:00
  TRACK 09 AUDIO
    TITLE "I Ain't No Nice Guy"
    PERFORMER "Motorhead"
    INDEX 00 04:50:50
FILE "09 - I Ain't No Nice Guy.wav" WAVE
    INDEX 01 00:00:00
  TRACK 10 AUDIO
    TITLE "Hell On Earth [Hellraiser 3 OST]"
    PERFORMER "Motorhead"
    INDEX 00 04:14:23
FILE "10 - Hell On Earth [Hellraiser 3 OST].wav" WAVE
    INDEX 01 00:00:00
FILE "11 - Burner.wav" WAVE
  TRACK 11 AUDIO
    TITLE "Burner"
    PERFORMER "Motorhead"
    INDEX 01 00:00:00
  TRACK 12 AUDIO
    TITLE "I Am The Sword"
    PERFORMER "Motorhead"
    INDEX 00 02:52:18
FILE "12 - I Am The Sword.wav" WAVE
    INDEX 01 00:00:00
FILE "13 - Bad Woman.wav" WAVE
  TRACK 13 AUDIO
    TITLE "Bad Woman"
    PERFORMER "Motorhead"
    INDEX 01 00:00:00
  TRACK 14 AUDIO
    TITLE "Devils"
    PERFORMER "Motorhead"
    INDEX 00 03:15:49
FILE "14 - Devils.wav" WAVE
    INDEX 01 00:00:00
  TRACK 15 AUDIO
    TITLE "Sacrifice"
    PERFORMER "Motorhead"
    INDEX 00 05:51:56
FILE "15 - Sacrifice.wav" WAVE
    INDEX 01 00:00:00
  TRACK 16 AUDIO
    TITLE "Sex And Death"
    PERFORMER "Motorhead"
    INDEX 00 03:15:67
FILE "16 - Sex And Death.wav" WAVE
    INDEX 01 00:00:00
  TRACK 17 AUDIO
    TITLE "Over Your Shoulder"
    PERFORMER "Motorhead"
    INDEX 00 02:02:03
FILE "17 - Over Your Shoulder.wav" WAVE
    INDEX 01 00:00:00
  TRACK 18 AUDIO
    TITLE "Out Of The Sun"
    PERFORMER "Motorhead"
    INDEX 00 03:17:59
FILE "18 - Out Of The Sun.wav" WAVE
    INDEX 01 00:00:00
FILE "19 - I Don't Believe A Word.wav" WAVE
  TRACK 19 AUDIO
    TITLE "I Don't Believe A Word"
    PERFORMER "Motorhead"
    INDEX 01 00:00:00

CD 4

REM GENRE "Hard Rock"
REM DATE 2003
REM DISCID E6108A10
REM COMMENT "ExactAudioCopy v1.0b3"
PERFORMER "Motorhead"
TITLE "Stone Deaf Forever! [Disc 4 of 5]"
FILE "01 - Overnight Sensation.wav" WAVE
  TRACK 01 AUDIO
    TITLE "Overnight Sensation"
    PERFORMER "Motorhead"
    INDEX 01 00:00:00
FILE "02 - Broken.wav" WAVE
  TRACK 02 AUDIO
    TITLE "Broken"
    PERFORMER "Motorhead"
    INDEX 01 00:00:00
  TRACK 03 AUDIO
    TITLE "Listen To Your Heart"
    PERFORMER "Motorhead"
    INDEX 00 04:34:26
FILE "03 - Listen To Your Heart.wav" WAVE
    INDEX 01 00:00:00
FILE "04 - Love For Sale.wav" WAVE
  TRACK 04 AUDIO
    TITLE "Love For Sale"
    PERFORMER "Motorhead"
    INDEX 01 00:00:00
  TRACK 05 AUDIO
    TITLE "Snakebite Love"
    PERFORMER "Motorhead"
    INDEX 00 04:52:41
FILE "05 - Snakebite Love.wav" WAVE
    INDEX 01 00:00:00
FILE "06 - Take The Blame.wav" WAVE
  TRACK 06 AUDIO
    TITLE "Take The Blame"
    PERFORMER "Motorhead"
    INDEX 01 00:00:00
FILE "07 - Joy Of Labour.wav" WAVE
  TRACK 07 AUDIO
    TITLE "Joy Of Labour"
    PERFORMER "Motorhead"
    INDEX 01 00:00:00
FILE "08 - Orgasmatron 2000 [Internet Download].wav" WAVE
  TRACK 08 AUDIO
    TITLE "Orgasmatron 2000 [Internet Download]"
    PERFORMER "Motorhead"
    INDEX 01 00:00:00
  TRACK 09 AUDIO
    TITLE "Stay Out Of Jail"
    PERFORMER "Motorhead"
    INDEX 00 06:00:65
FILE "09 - Stay Out Of Jail.wav" WAVE
    INDEX 01 00:00:00
  TRACK 10 AUDIO
    TITLE "One More Fucking Time"
    PERFORMER "Motorhead"
    INDEX 00 03:00:38
FILE "10 - One More Fucking Time.wav" WAVE
    INDEX 01 00:00:00
  TRACK 11 AUDIO
    TITLE "We Are Motorhead"
    PERFORMER "Motorhead"
    INDEX 00 06:44:34
FILE "11 - We Are Motorhead.wav" WAVE
    INDEX 01 00:00:00
  TRACK 12 AUDIO
    TITLE "Shoot 'Em Down [Twisted Sister Tribute Track]"
    PERFORMER "Motorhead"
    INDEX 00 02:21:00
FILE "12 - Shoot 'Em Down [Twisted Sister Tribute Track].wav" WAVE
    INDEX 01 00:00:00
  TRACK 13 AUDIO
    TITLE "Walk A Crooked Mile"
    PERFORMER "Motorhead"
    INDEX 00 03:52:43
FILE "13 - Walk A Crooked Mile.wav" WAVE
    INDEX 01 00:00:00
  TRACK 14 AUDIO
    TITLE "Brave New World"
    PERFORMER "Motorhead"
    INDEX 00 05:50:16
FILE "14 - Brave New World.wav" WAVE
    INDEX 01 00:00:00
  TRACK 15 AUDIO
    TITLE "Mine All Mine"
    PERFORMER "Motorhead"
    INDEX 00 04:02:45
FILE "15 - Mine All Mine.wav" WAVE
    INDEX 01 00:00:00
FILE "16 - Voices From The War.wav" WAVE
  TRACK 16 AUDIO
    TITLE "Voices From The War"
    PERFORMER "Motorhead"
    INDEX 01 00:00:00

CD 5

REM GENRE "Hard Rock"
REM DATE 2003
REM DISCID 25118215
REM COMMENT "ExactAudioCopy v1.0b3"
PERFORMER "Motorhead"
TITLE "Stone Deaf Forever! [Disc 5 of 5]"
FILE "01 - On Parole.wav" WAVE
  TRACK 01 AUDIO
    TITLE "On Parole"
    PERFORMER "Motorhead"
    INDEX 01 00:00:00
  TRACK 02 AUDIO
    TITLE "Train Kept A Rollin'"
    PERFORMER "Motorhead"
    INDEX 00 05:28:59
FILE "02 - Train Kept A Rollin'.wav" WAVE
    INDEX 01 00:00:00
  TRACK 03 AUDIO
    TITLE "Too Late Too Late [BBC In Concert]"
    PERFORMER "Motorhead"
    INDEX 00 03:02:29
FILE "03 - Too Late Too Late [BBC In Concert].wav" WAVE
    INDEX 01 00:00:00
FILE "04 - (I Won't) Pay Your Price [BBC In Concert].wav" WAVE
  TRACK 04 AUDIO
    TITLE "(I Won't) Pay Your Price [BBC In Concert]"
    PERFORMER "Motorhead"
    INDEX 01 00:00:00
  TRACK 05 AUDIO
    TITLE "Iron Horse"
    PERFORMER "Motorhead"
    INDEX 00 03:13:13
FILE "05 - Iron Horse.wav" WAVE
    INDEX 01 00:00:00
FILE "06 - We Are The Road Crew.wav" WAVE
  TRACK 06 AUDIO
    TITLE "We Are The Road Crew"
    PERFORMER "Motorhead"
    INDEX 01 00:00:00
  TRACK 07 AUDIO
    TITLE "Nadine [Bootleg Version]"
    PERFORMER "Motorhead"
    INDEX 00 03:27:30
FILE "07 - Nadine [Bootleg Version].wav" WAVE
    INDEX 01 00:00:00
  TRACK 08 AUDIO
    TITLE "Steal Your Face [BBC In Concert]"
    PERFORMER "Motorhead"
    INDEX 00 03:15:68
FILE "08 - Steal Your Face [BBC In Concert].wav" WAVE
    INDEX 01 00:00:00
FILE "09 - Mean Machine.wav" WAVE
  TRACK 09 AUDIO
    TITLE "Mean Machine"
    PERFORMER "Motorhead"
    INDEX 01 00:00:00
FILE "10 - No Class.wav" WAVE
  TRACK 10 AUDIO
    TITLE "No Class"
    PERFORMER "Motorhead"
    INDEX 01 00:00:00
FILE "11 - Stone Deaf In The USA.wav" WAVE
  TRACK 11 AUDIO
    TITLE "Stone Deaf In The USA"
    PERFORMER "Motorhead"
    INDEX 01 00:00:00
FILE "12 - Dogs.wav" WAVE
  TRACK 12 AUDIO
    TITLE "Dogs"
    PERFORMER "Motorhead"
    INDEX 01 00:00:00
FILE "13 - Traitor.wav" WAVE
  TRACK 13 AUDIO
    TITLE "Traitor"
    PERFORMER "Motorhead"
    INDEX 01 00:00:00
FILE "14 - Built For Speed.wav" WAVE
  TRACK 14 AUDIO
    TITLE "Built For Speed"
    PERFORMER "Motorhead"
    INDEX 01 00:00:00
  TRACK 15 AUDIO
    TITLE "Acropolis (Metropolis) [Greek 45 Free Single]"
    PERFORMER "Motorhead"
    INDEX 00 04:52:74
FILE "15 - Acropolis (Metropolis) [Greek 45 Free Single].wav" WAVE
    INDEX 01 00:00:00
  TRACK 16 AUDIO
    TITLE "Angel City"
    PERFORMER "Motorhead"
    INDEX 00 03:32:48
FILE "16 - Angel City.wav" WAVE
    INDEX 01 00:00:00
FILE "17 - R.A.M.O.N.E.S..wav" WAVE
  TRACK 17 AUDIO
    TITLE "R.A.M.O.N.E.S."
    PERFORMER "Motorhead"
    INDEX 01 00:00:00
  TRACK 18 AUDIO
    TITLE "Silver Machine [Bootleg Version]"
    PERFORMER "Motorhead"
    INDEX 00 01:13:35
FILE "18 - Silver Machine [Bootleg Version].wav" WAVE
    INDEX 01 00:00:00
  TRACK 19 AUDIO
    TITLE "On Your Feet Or On Your Knees"
    PERFORMER "Motorhead"
    INDEX 00 03:59:08
FILE "19 - On Your Feet Or On Your Knees.wav" WAVE
    INDEX 01 00:00:00
FILE "20 - I'm So Bad, Baby I Don't Care.wav" WAVE
  TRACK 20 AUDIO
    TITLE "I'm So Bad, Baby I Don't Care"
    PERFORMER "Motorhead"
    INDEX 01 00:00:00
FILE "21 - Born To Raise Hell.wav" WAVE
  TRACK 21 AUDIO
    TITLE "Born To Raise Hell"
    PERFORMER "Motorhead"
    INDEX 01 00:00:00

Лог Audiochecker:

CD 1

AUDIOCHECKER v2.0 beta (build 457) - by Dester - opdester@freemail.hu
~~~~~~~~~~~~~~~~~~~~~~~~~~~~~~~~~~
Started at: вторник, 26. 05. 2015. - 14:58.39
22 files found
01 -===- D:\Torrent files\Motorhead - Stone Deaf Forever! - 2003\CD1\01 - Hawkwind - Motorhead.flac
  Extracted successfully
  Conclusion: this track is CDDA with probability 99%
  Tempfile successfully deleted.
02 -===- D:\Torrent files\Motorhead - Stone Deaf Forever! - 2003\CD1\02 - Motorhead - Lost Johnny.flac
  Extracted successfully
  Conclusion: this track is CDDA with probability 100%
  Tempfile successfully deleted.
03 -===- D:\Torrent files\Motorhead - Stone Deaf Forever! - 2003\CD1\03 - Motorhead - Leavin' Here.flac
  Extracted successfully
  Conclusion: this track is CDDA with probability 100%
  Tempfile successfully deleted.
04 -===- D:\Torrent files\Motorhead - Stone Deaf Forever! - 2003\CD1\04 - Motorhead - White Line Fever.flac
  Extracted successfully
  Conclusion: this track is CDDA with probability 100%
  Tempfile successfully deleted.
05 -===- D:\Torrent files\Motorhead - Stone Deaf Forever! - 2003\CD1\05 - Motorhead - The Watcher.flac
  Extracted successfully
  Conclusion: this track is CDDA with probability 100%
  Tempfile successfully deleted.
06 -===- D:\Torrent files\Motorhead - Stone Deaf Forever! - 2003\CD1\06 - Motorhead - City Kids.flac
  Extracted successfully
  Conclusion: this track is CDDA with probability 100%
  Tempfile successfully deleted.
07 -===- D:\Torrent files\Motorhead - Stone Deaf Forever! - 2003\CD1\07 - Motorhead - I'm Your Witchdoctor.flac
  Extracted successfully
  Conclusion: this track is CDDA with probability 100%
  Tempfile successfully deleted.
08 -===- D:\Torrent files\Motorhead - Stone Deaf Forever! - 2003\CD1\08 - Motorhead - Motorhead.flac
  Extracted successfully
  Conclusion: this track is CDDA with probability 100%
  Tempfile successfully deleted.
09 -===- D:\Torrent files\Motorhead - Stone Deaf Forever! - 2003\CD1\09 - Motorhead - Louie Louie [Peel Session '78].flac
  Extracted successfully
  Conclusion: this track is CDDA with probability 100%
  Tempfile successfully deleted.
10 -===- D:\Torrent files\Motorhead - Stone Deaf Forever! - 2003\CD1\10 - Motorhead - Keep Us On The Road [Peel Session '78].flac
  Extracted successfully
  Conclusion: this track is CDDA with probability 100%
  Tempfile successfully deleted.
11 -===- D:\Torrent files\Motorhead - Stone Deaf Forever! - 2003\CD1\11 - Motorhead - Tear Ya Down [Peel Session '78].flac
  Extracted successfully
  Conclusion: this track is CDDA with probability 100%
  Tempfile successfully deleted.
12 -===- D:\Torrent files\Motorhead - Stone Deaf Forever! - 2003\CD1\12 - Motorhead - I'll Be Your Sister [Peel Session '78].flac
  Extracted successfully
  Conclusion: this track is CDDA with probability 99%
  Tempfile successfully deleted.
13 -===- D:\Torrent files\Motorhead - Stone Deaf Forever! - 2003\CD1\13 - Motorhead - Overkill.flac
  Extracted successfully
  Conclusion: this track is CDDA with probability 100%
  Tempfile successfully deleted.
14 -===- D:\Torrent files\Motorhead - Stone Deaf Forever! - 2003\CD1\14 - Motorhead - Stay Clean.flac
  Extracted successfully
  Conclusion: this track is CDDA with probability 100%
  Tempfile successfully deleted.
15 -===- D:\Torrent files\Motorhead - Stone Deaf Forever! - 2003\CD1\15 - Motorhead - Capricorn.flac
  Extracted successfully
  Conclusion: this track is CDDA with probability 99%
  Tempfile successfully deleted.
16 -===- D:\Torrent files\Motorhead - Stone Deaf Forever! - 2003\CD1\16 - Motorhead - Limb From Limb.flac
  Extracted successfully
  Conclusion: this track is CDDA with probability 100%
  Tempfile successfully deleted.
17 -===- D:\Torrent files\Motorhead - Stone Deaf Forever! - 2003\CD1\17 - Motorhead - Dead Men Tell No Tales.flac
  Extracted successfully
  Conclusion: this track is CDDA with probability 100%
  Tempfile successfully deleted.
18 -===- D:\Torrent files\Motorhead - Stone Deaf Forever! - 2003\CD1\18 - Motorhead - Stone Dead Forever.flac
  Extracted successfully
  Conclusion: this track is CDDA with probability 100%
  Tempfile successfully deleted.
19 -===- D:\Torrent files\Motorhead - Stone Deaf Forever! - 2003\CD1\19 - Motorhead - Step Down.flac
  Extracted successfully
  Conclusion: this track is CDDA with probability 100%
  Tempfile successfully deleted.
20 -===- D:\Torrent files\Motorhead - Stone Deaf Forever! - 2003\CD1\20 - Motorhead - Bomber.flac
  Extracted successfully
  Conclusion: this track is CDDA with probability 100%
  Tempfile successfully deleted.
21 -===- D:\Torrent files\Motorhead - Stone Deaf Forever! - 2003\CD1\21 - Motordam - Over The Top.flac
  Extracted successfully
  Conclusion: this track is CDDA with probability 100%
  Tempfile successfully deleted.
22 -===- D:\Torrent files\Motorhead - Stone Deaf Forever! - 2003\CD1\22 - Motorhead - Shoot You In The Back.flac
  Extracted successfully
  Conclusion: this track is CDDA with probability 100%
  Tempfile successfully deleted.
Finished at: вторник, 26. 05. 2015. - 15:02.32 (operation time: 0:03.52)

CD 2

AUDIOCHECKER v2.0 beta (build 457) - by Dester - opdester@freemail.hu
~~~~~~~~~~~~~~~~~~~~~~~~~~~~~~~~~~
Started at: вторник, 26. 05. 2015. - 15:02.56
21 files found
01 -===- D:\Torrent files\Motorhead - Stone Deaf Forever! - 2003\CD2\01 - Motorhead - Ace Of Spades.flac
  Extracted successfully
  Conclusion: this track is CDDA with probability 100%
  Tempfile successfully deleted.
02 -===- D:\Torrent files\Motorhead - Stone Deaf Forever! - 2003\CD2\02 - Motorhead - Bite The Bullet.flac
  Extracted successfully
  Conclusion: this track is CDDA with probability 100%
  Tempfile successfully deleted.
03 -===- D:\Torrent files\Motorhead - Stone Deaf Forever! - 2003\CD2\03 - Motorhead - The Chase Is Better Than The Catch.flac
  Extracted successfully
  Conclusion: this track is CDDA with probability 100%
  Tempfile successfully deleted.
04 -===- D:\Torrent files\Motorhead - Stone Deaf Forever! - 2003\CD2\04 - Motorhead - Live To Win [BBC Session '80].flac
  Extracted successfully
  Conclusion: this track is CDDA with probability 100%
  Tempfile successfully deleted.
05 -===- D:\Torrent files\Motorhead - Stone Deaf Forever! - 2003\CD2\05 - Motorhead - Like A Nightmare [BBC Session '80].flac
  Extracted successfully
  Conclusion: this track is CDDA with probability 100%
  Tempfile successfully deleted.
06 -===- D:\Torrent files\Motorhead - Stone Deaf Forever! - 2003\CD2\06 - Headgirl - Please Don't Touch.flac
  Extracted successfully
  Conclusion: this track is CDDA with probability 100%
  Tempfile successfully deleted.
07 -===- D:\Torrent files\Motorhead - Stone Deaf Forever! - 2003\CD2\07 - Motorhead - Iron Fist.flac
  Extracted successfully
  Conclusion: this track is CDDA with probability 100%
  Tempfile successfully deleted.
08 -===- D:\Torrent files\Motorhead - Stone Deaf Forever! - 2003\CD2\08 - Motorhead - Heart Of Stone.flac
  Extracted successfully
  Conclusion: this track is CDDA with probability 100%
  Tempfile successfully deleted.
09 -===- D:\Torrent files\Motorhead - Stone Deaf Forever! - 2003\CD2\09 - Motorhead - Don't Need Religion.flac
  Extracted successfully
  Conclusion: this track is CDDA with probability 100%
  Tempfile successfully deleted.
10 -===- D:\Torrent files\Motorhead - Stone Deaf Forever! - 2003\CD2\10 - Motorhead - Shine.flac
  Extracted successfully
  Conclusion: this track is CDDA with probability 100%
  Tempfile successfully deleted.
11 -===- D:\Torrent files\Motorhead - Stone Deaf Forever! - 2003\CD2\11 - Motorhead - One Track Mind.flac
  Extracted successfully
  Conclusion: this track is CDDA with probability 100%
  Tempfile successfully deleted.
12 -===- D:\Torrent files\Motorhead - Stone Deaf Forever! - 2003\CD2\12 - Motorhead - I Got Mine.flac
  Extracted successfully
  Conclusion: this track is CDDA with probability 100%
  Tempfile successfully deleted.
13 -===- D:\Torrent files\Motorhead - Stone Deaf Forever! - 2003\CD2\13 - Motorhead - Snaggletooth.flac
  Extracted successfully
  Conclusion: this track is CDDA with probability 100%
  Tempfile successfully deleted.
14 -===- D:\Torrent files\Motorhead - Stone Deaf Forever! - 2003\CD2\14 - Motorhead - Under The Knife [Slow Version].flac
  Extracted successfully
  Conclusion: this track is CDDA with probability 100%
  Tempfile successfully deleted.
15 -===- D:\Torrent files\Motorhead - Stone Deaf Forever! - 2003\CD2\15 - Motorhead - Ain't My Crime.flac
  Extracted successfully
  Conclusion: this track is CDDA with probability 99%
  Tempfile successfully deleted.
16 -===- D:\Torrent files\Motorhead - Stone Deaf Forever! - 2003\CD2\16 - Motorhead - Nothing Up My Sleeve.flac
  Extracted successfully
  Conclusion: this track is CDDA with probability 100%
  Tempfile successfully deleted.
17 -===- D:\Torrent files\Motorhead - Stone Deaf Forever! - 2003\CD2\17 - Motorhead - Killed By Death [BBC Session '86].flac
  Extracted successfully
  Conclusion: this track is CDDA with probability 100%
  Tempfile successfully deleted.
18 -===- D:\Torrent files\Motorhead - Stone Deaf Forever! - 2003\CD2\18 - Motorhead - Deaf Forever [BBC Session '86].flac
  Extracted successfully
  Conclusion: this track is CDDA with probability 100%
  Tempfile successfully deleted.
19 -===- D:\Torrent files\Motorhead - Stone Deaf Forever! - 2003\CD2\19 - Motorhead - Orgasmatron (Spoken Word) [BBC Session '86].flac
  Extracted successfully
  Conclusion: this track is CDDA with probability 100%
  Tempfile successfully deleted.
20 -===- D:\Torrent files\Motorhead - Stone Deaf Forever! - 2003\CD2\20 - Motorhead - Orgasmatron [BBC Session '86].flac
  Extracted successfully
  Conclusion: this track is CDDA with probability 100%
  Tempfile successfully deleted.
21 -===- D:\Torrent files\Motorhead - Stone Deaf Forever! - 2003\CD2\21 - Motorhead - Dr. Rock [BBC Session '86].flac
  Extracted successfully
  Conclusion: this track is CDDA with probability 100%
  Tempfile successfully deleted.
Finished at: вторник, 26. 05. 2015. - 15:06.45 (operation time: 0:03.49)

CD 3

AUDIOCHECKER v2.0 beta (build 457) - by Dester - opdester@freemail.hu
~~~~~~~~~~~~~~~~~~~~~~~~~~~~~~~~~~
Started at: вторник, 26. 05. 2015. - 15:07.01
19 files found
01 -===- D:\Torrent files\Motorhead - Stone Deaf Forever! - 2003\CD3\01 - Rock 'n' Roll.flac
  Extracted successfully
  Conclusion: this track is CDDA with probability 100%
  Tempfile successfully deleted.
02 -===- D:\Torrent files\Motorhead - Stone Deaf Forever! - 2003\CD3\02 - Eat The Rich.flac
  Extracted successfully
  Conclusion: this track is CDDA with probability 100%
  Tempfile successfully deleted.
03 -===- D:\Torrent files\Motorhead - Stone Deaf Forever! - 2003\CD3\03 - Just 'Cos You Got The Power.flac
  Extracted successfully
  Conclusion: this track is CDDA with probability 100%
  Tempfile successfully deleted.
04 -===- D:\Torrent files\Motorhead - Stone Deaf Forever! - 2003\CD3\04 - Black Leather Jacket [Club X TV 1989].flac
  Extracted successfully
  Conclusion: this track is CDDA with probability 100%
  Tempfile successfully deleted.
05 -===- D:\Torrent files\Motorhead - Stone Deaf Forever! - 2003\CD3\05 - No Voices In The Sky.flac
  Extracted successfully
  Conclusion: this track is CDDA with probability 100%
  Tempfile successfully deleted.
06 -===- D:\Torrent files\Motorhead - Stone Deaf Forever! - 2003\CD3\06 - Going To Brazil.flac
  Extracted successfully
  Conclusion: this track is CDDA with probability 100%
  Tempfile successfully deleted.
07 -===- D:\Torrent files\Motorhead - Stone Deaf Forever! - 2003\CD3\07 - Love Me Forever.flac
  Extracted successfully
  Conclusion: this track is CDDA with probability 100%
  Tempfile successfully deleted.
08 -===- D:\Torrent files\Motorhead - Stone Deaf Forever! - 2003\CD3\08 - You Better Run.flac
  Extracted successfully
  Conclusion: this track is CDDA with probability 99%
  Tempfile successfully deleted.
09 -===- D:\Torrent files\Motorhead - Stone Deaf Forever! - 2003\CD3\09 - I Ain't No Nice Guy.flac
  Extracted successfully
  Conclusion: this track is CDDA with probability 99%
  Tempfile successfully deleted.
10 -===- D:\Torrent files\Motorhead - Stone Deaf Forever! - 2003\CD3\10 - Hell On Earth [Hellraiser 3 OST].flac
  Extracted successfully
  Conclusion: this track is CDDA with probability 100%
  Tempfile successfully deleted.
11 -===- D:\Torrent files\Motorhead - Stone Deaf Forever! - 2003\CD3\11 - Burner.flac
  Extracted successfully
  Conclusion: this track is CDDA with probability 100%
  Tempfile successfully deleted.
12 -===- D:\Torrent files\Motorhead - Stone Deaf Forever! - 2003\CD3\12 - I Am The Sword.flac
  Extracted successfully
  Conclusion: this track is CDDA with probability 100%
  Tempfile successfully deleted.
13 -===- D:\Torrent files\Motorhead - Stone Deaf Forever! - 2003\CD3\13 - Bad Woman.flac
  Extracted successfully
  Conclusion: this track is CDDA with probability 100%
  Tempfile successfully deleted.
14 -===- D:\Torrent files\Motorhead - Stone Deaf Forever! - 2003\CD3\14 - Devils.flac
  Extracted successfully
  Conclusion: this track is CDDA with probability 100%
  Tempfile successfully deleted.
15 -===- D:\Torrent files\Motorhead - Stone Deaf Forever! - 2003\CD3\15 - Sacrifice.flac
  Extracted successfully
  Conclusion: this track is CDDA with probability 100%
  Tempfile successfully deleted.
16 -===- D:\Torrent files\Motorhead - Stone Deaf Forever! - 2003\CD3\16 - Sex And Death.flac
  Extracted successfully
  Conclusion: this track is CDDA with probability 100%
  Tempfile successfully deleted.
17 -===- D:\Torrent files\Motorhead - Stone Deaf Forever! - 2003\CD3\17 - Over Your Shoulder.flac
  Extracted successfully
  Conclusion: this track is CDDA with probability 99%
  Tempfile successfully deleted.
18 -===- D:\Torrent files\Motorhead - Stone Deaf Forever! - 2003\CD3\18 - Out Of The Sun.flac
  Extracted successfully
  Conclusion: this track is CDDA with probability 100%
  Tempfile successfully deleted.
19 -===- D:\Torrent files\Motorhead - Stone Deaf Forever! - 2003\CD3\19 - I Don't Believe A Word.flac
  Extracted successfully
  Conclusion: this track is CDDA with probability 100%
  Tempfile successfully deleted.
Finished at: вторник, 26. 05. 2015. - 15:10.52 (operation time: 0:03.50)

CD 4

AUDIOCHECKER v2.0 beta (build 457) - by Dester - opdester@freemail.hu
~~~~~~~~~~~~~~~~~~~~~~~~~~~~~~~~~~
Started at: вторник, 26. 05. 2015. - 15:11.13
16 files found
01 -===- D:\Torrent files\Motorhead - Stone Deaf Forever! - 2003\CD4\01 - Overnight Sensation.flac
  Extracted successfully
  Conclusion: this track is CDDA with probability 100%
  Tempfile successfully deleted.
02 -===- D:\Torrent files\Motorhead - Stone Deaf Forever! - 2003\CD4\02 - Broken.flac
  Extracted successfully
  Conclusion: this track is CDDA with probability 100%
  Tempfile successfully deleted.
03 -===- D:\Torrent files\Motorhead - Stone Deaf Forever! - 2003\CD4\03 - Listen To Your Heart.flac
  Extracted successfully
  Conclusion: this track is CDDA with probability 100%
  Tempfile successfully deleted.
04 -===- D:\Torrent files\Motorhead - Stone Deaf Forever! - 2003\CD4\04 - Love For Sale.flac
  Extracted successfully
  Conclusion: this track is CDDA with probability 100%
  Tempfile successfully deleted.
05 -===- D:\Torrent files\Motorhead - Stone Deaf Forever! - 2003\CD4\05 - Snakebite Love.flac
  Extracted successfully
  Conclusion: this track is CDDA with probability 100%
  Tempfile successfully deleted.
06 -===- D:\Torrent files\Motorhead - Stone Deaf Forever! - 2003\CD4\06 - Take The Blame.flac
  Extracted successfully
  Conclusion: this track is CDDA with probability 100%
  Tempfile successfully deleted.
07 -===- D:\Torrent files\Motorhead - Stone Deaf Forever! - 2003\CD4\07 - Joy Of Labour.flac
  Extracted successfully
  Conclusion: this track is CDDA with probability 100%
  Tempfile successfully deleted.
08 -===- D:\Torrent files\Motorhead - Stone Deaf Forever! - 2003\CD4\08 - Orgasmatron 2000 [Internet Download].flac
  Extracted successfully
  Conclusion: this track is CDDA with probability 100%
  Tempfile successfully deleted.
09 -===- D:\Torrent files\Motorhead - Stone Deaf Forever! - 2003\CD4\09 - Stay Out Of Jail.flac
  Extracted successfully
  Conclusion: this track is CDDA with probability 100%
  Tempfile successfully deleted.
10 -===- D:\Torrent files\Motorhead - Stone Deaf Forever! - 2003\CD4\10 - One More Fucking Time.flac
  Extracted successfully
  Conclusion: this track is CDDA with probability 100%
  Tempfile successfully deleted.
11 -===- D:\Torrent files\Motorhead - Stone Deaf Forever! - 2003\CD4\11 - We Are Motorhead.flac
  Extracted successfully
  Conclusion: this track is CDDA with probability 100%
  Tempfile successfully deleted.
12 -===- D:\Torrent files\Motorhead - Stone Deaf Forever! - 2003\CD4\12 - Shoot 'Em Down [Twisted Sister Tribute Track].flac
  Extracted successfully
  Conclusion: this track is CDDA with probability 100%
  Tempfile successfully deleted.
13 -===- D:\Torrent files\Motorhead - Stone Deaf Forever! - 2003\CD4\13 - Walk A Crooked Mile.flac
  Extracted successfully
  Conclusion: this track is CDDA with probability 100%
  Tempfile successfully deleted.
14 -===- D:\Torrent files\Motorhead - Stone Deaf Forever! - 2003\CD4\14 - Brave New World.flac
  Extracted successfully
  Conclusion: this track is CDDA with probability 100%
  Tempfile successfully deleted.
15 -===- D:\Torrent files\Motorhead - Stone Deaf Forever! - 2003\CD4\15 - Mine All Mine.flac
  Extracted successfully
  Conclusion: this track is CDDA with probability 100%
  Tempfile successfully deleted.
16 -===- D:\Torrent files\Motorhead - Stone Deaf Forever! - 2003\CD4\16 - Voices From The War.flac
  Extracted successfully
  Conclusion: this track is CDDA with probability 99%
  Tempfile successfully deleted.
Finished at: вторник, 26. 05. 2015. - 15:14.23 (operation time: 0:03.10)

CD 5

AUDIOCHECKER v2.0 beta (build 457) - by Dester - opdester@freemail.hu
~~~~~~~~~~~~~~~~~~~~~~~~~~~~~~~~~~
Started at: вторник, 26. 05. 2015. - 15:14.54
21 files found
01 -===- D:\Torrent files\Motorhead - Stone Deaf Forever! - 2003\CD5\01 - On Parole.flac
  Extracted successfully
  Conclusion: this track is CDDA with probability 99%
  Tempfile successfully deleted.
02 -===- D:\Torrent files\Motorhead - Stone Deaf Forever! - 2003\CD5\02 - Train Kept A Rollin'.flac
  Extracted successfully
  Conclusion: this track is CDDA with probability 100%
  Tempfile successfully deleted.
03 -===- D:\Torrent files\Motorhead - Stone Deaf Forever! - 2003\CD5\03 - Too Late Too Late [BBC In Concert].flac
  Extracted successfully
  Conclusion: this track is CDDA with probability 100%
  Tempfile successfully deleted.
04 -===- D:\Torrent files\Motorhead - Stone Deaf Forever! - 2003\CD5\04 - (I Won't) Pay Your Price [BBC In Concert].flac
  Extracted successfully
  Conclusion: this track is CDDA with probability 100%
  Tempfile successfully deleted.
05 -===- D:\Torrent files\Motorhead - Stone Deaf Forever! - 2003\CD5\05 - Iron Horse.flac
  Extracted successfully
  Conclusion: this track is CDDA with probability 100%
  Tempfile successfully deleted.
06 -===- D:\Torrent files\Motorhead - Stone Deaf Forever! - 2003\CD5\06 - We Are The Road Crew.flac
  Extracted successfully
  Conclusion: this track is CDDA with probability 100%
  Tempfile successfully deleted.
07 -===- D:\Torrent files\Motorhead - Stone Deaf Forever! - 2003\CD5\07 - Nadine [Bootleg Version].flac
  Extracted successfully
  Conclusion: this track is CDDA with probability 99%
  Tempfile successfully deleted.
08 -===- D:\Torrent files\Motorhead - Stone Deaf Forever! - 2003\CD5\08 - Steal Your Face [BBC In Concert].flac
  Extracted successfully
  Conclusion: this track is CDDA with probability 100%
  Tempfile successfully deleted.
09 -===- D:\Torrent files\Motorhead - Stone Deaf Forever! - 2003\CD5\09 - Mean Machine.flac
  Extracted successfully
  Conclusion: this track is CDDA with probability 100%
  Tempfile successfully deleted.
10 -===- D:\Torrent files\Motorhead - Stone Deaf Forever! - 2003\CD5\10 - No Class.flac
  Extracted successfully
  Conclusion: this track is CDDA with probability 100%
  Tempfile successfully deleted.
11 -===- D:\Torrent files\Motorhead - Stone Deaf Forever! - 2003\CD5\11 - Stone Deaf In The USA.flac
  Extracted successfully
  Conclusion: this track is CDDA with probability 100%
  Tempfile successfully deleted.
12 -===- D:\Torrent files\Motorhead - Stone Deaf Forever! - 2003\CD5\12 - Dogs.flac
  Extracted successfully
  Conclusion: this track is CDDA with probability 100%
  Tempfile successfully deleted.
13 -===- D:\Torrent files\Motorhead - Stone Deaf Forever! - 2003\CD5\13 - Traitor.flac
  Extracted successfully
  Conclusion: this track is CDDA with probability 100%
  Tempfile successfully deleted.
14 -===- D:\Torrent files\Motorhead - Stone Deaf Forever! - 2003\CD5\14 - Built For Speed.flac
  Extracted successfully
  Conclusion: this track is CDDA with probability 100%
  Tempfile successfully deleted.
15 -===- D:\Torrent files\Motorhead - Stone Deaf Forever! - 2003\CD5\15 - Acropolis (Metropolis) [Greek 45 Free Single].flac
  Extracted successfully
  Conclusion: this track is CDDA with probability 100%
  Tempfile successfully deleted.
16 -===- D:\Torrent files\Motorhead - Stone Deaf Forever! - 2003\CD5\16 - Angel City.flac
  Extracted successfully
  Conclusion: this track is CDDA with probability 100%
  Tempfile successfully deleted.
17 -===- D:\Torrent files\Motorhead - Stone Deaf Forever! - 2003\CD5\17 - R.A.M.O.N.E.S..flac
  Extracted successfully
  Conclusion: this track is CDDA with probability 100%
  Tempfile successfully deleted.
18 -===- D:\Torrent files\Motorhead - Stone Deaf Forever! - 2003\CD5\18 - Silver Machine [Bootleg Version].flac
  Extracted successfully
  Conclusion: this track is CDDA with probability 100%
  Tempfile successfully deleted.
19 -===- D:\Torrent files\Motorhead - Stone Deaf Forever! - 2003\CD5\19 - On Your Feet Or On Your Knees.flac
  Extracted successfully
  Conclusion: this track is CDDA with probability 100%
  Tempfile successfully deleted.
20 -===- D:\Torrent files\Motorhead - Stone Deaf Forever! - 2003\CD5\20 - I'm So Bad, Baby I Don't Care.flac
  Extracted successfully
  Conclusion: this track is CDDA with probability 100%
  Tempfile successfully deleted.
21 -===- D:\Torrent files\Motorhead - Stone Deaf Forever! - 2003\CD5\21 - Born To Raise Hell.flac
  Extracted successfully
  Conclusion: this track is CDDA with probability 100%
  Tempfile successfully deleted.
Finished at: вторник, 26. 05. 2015. - 15:18.31 (operation time: 0:03.36)
--Не забываем говорить
[Профиль] [ЛС]
Показать сообщения:    

Текущее время: Сегодня 10:09

Часовой пояс: GMT



Вы не можете начинать темы
Вы не можете отвечать на сообщения
Вы не можете редактировать свои сообщения
Вы не можете удалять свои сообщения
Вы не можете голосовать в опросах
Вы не можете прикреплять файлы к сообщениям
Вы не можете скачивать файлы