(Heavy Metal) Motorhead - Aftershock - 2013, APE (image + .cue), Lossless

 
Автор Сообщение

sergej644 ®

Пол:

Стаж: 4 года 11 месяцев

Сообщений: 6046

Откуда: Soviet Union



Награды: Нет

Торрент-статистика

Создавать темы 17-Июл-2014 14:50

[Цитировать]

-Motorhead - Aftershock
Год издания: 2013
Cтрана: United Kingdom
Жанр: Heavy Metal
Издатель (лейбл): UDR
Номер по каталогу: 0175 CD
Аудиокодек: APE (*.ape)
Tип рипа: image+.cue
Битрейт аудио: lossless
Продолжительность: 00:46:59
- -

треклист

01. Heartbreaker (03:05)
02. Coup De Grace (03:45)
03. Lost Woman Blues (04:09)
04. End Of Time (03:17)
05. Do You Believe (02:59)
06. Death Machine (02:37)
07. Dust And Glass (02:51)
08. Going To Mexico (02:51)
09. Silence When You Speak To Me (04:30)
10. Crying Shame (04:28)
11. Queen Of The Damned (02:40)
12. Knife (02:57)
13. Keep Your Powder Dry (03:54)
14. Paralyzed (02:50)
-

лог создания рипа

Exact Audio Copy V1.0 beta 3 from 29. August 2011
EAC extraction logfile from 26. October 2013, 9:52
Motorhead / Aftershock
Used drive  : HL-DT-STBD-RE  BH10LS38   Adapter: 1  ID: 1
Read mode               : Secure
Utilize accurate stream : Yes
Defeat audio cache      : Yes
Make use of C2 pointers : No
Read offset correction                      : 667
Overread into Lead-In and Lead-Out          : No
Fill up missing offset samples with silence : Yes
Delete leading and trailing silent blocks   : No
Null samples used in CRC calculations       : Yes
Used interface                              : Native Win32 interface for Win NT & 2000
Used output format              : Monkey's Audio Lossless Encoder
Selected bitrate                : High Lossless Compression
Quality                         : High
Add ID3 tag                     : Yes
Command line compressor         : C:\Programmi\Monkey's Audio\MAC.exe
TOC of the extracted CD
     Track |   Start  |  Length  | Start sector | End sector
    ---------------------------------------------------------
        1  |  0:00.00 |  3:05.01 |         0    |    13875
        2  |  3:05.01 |  3:45.35 |     13876    |    30785
        3  |  6:50.36 |  4:09.20 |     30786    |    49480
        4  | 10:59.56 |  3:17.04 |     49481    |    64259
        5  | 14:16.60 |  2:59.42 |     64260    |    77726
        6  | 17:16.27 |  2:37.63 |     77727    |    89564
        7  | 19:54.15 |  2:51.16 |     89565    |   102405
        8  | 22:45.31 |  2:51.73 |    102406    |   115303
        9  | 25:37.29 |  4:30.08 |    115304    |   135561
       10  | 30:07.37 |  4:28.29 |    135562    |   155690
       11  | 34:35.66 |  2:40.72 |    155691    |   167762
       12  | 37:16.63 |  2:57.37 |    167763    |   181074
       13  | 40:14.25 |  3:54.07 |    181075    |   198631
       14  | 44:08.32 |  2:50.33 |    198632    |   211414
Range status and errors
Selected range
     Filename C:\SCAMBIO\Motorhead - 2013 - Aftershock\Motorhead - Aftershock.wav
     Peak level 100.0 %
     Extraction speed 7.5 X
     Range quality 100.0 %
     Copy CRC 0D7FD409
     Copy OK
No errors occurred
AccurateRip summary
Track  1  not present in database
Track  2  not present in database
Track  3  not present in database
Track  4  not present in database
Track  5  not present in database
Track  6  not present in database
Track  7  not present in database
Track  8  not present in database
Track  9  not present in database
Track 10  not present in database
Track 11  not present in database
Track 12  not present in database
Track 13  not present in database
Track 14  not present in database
None of the tracks are present in the AccurateRip database
End of status report

содержание индексной карты *cue

REM GENRE "Heavy Metal"
REM DATE 2013
REM DISCID C60B020E
REM COMMENT "ExactAudioCopy v1.0b3"
PERFORMER "Motorhead"
TITLE "Aftershock"
FILE "Motorhead - Aftershock.ape" WAVE
  TRACK 01 AUDIO
    TITLE "Heartbreaker"
    PERFORMER "Motorhead"
    INDEX 01 00:00:00
  TRACK 02 AUDIO
    TITLE "Coup De Grace"
    PERFORMER "Motorhead"
    INDEX 01 03:05:01
  TRACK 03 AUDIO
    TITLE "Lost Woman Blues"
    PERFORMER "Motorhead"
    INDEX 01 06:50:36
  TRACK 04 AUDIO
    TITLE "End Of Time"
    PERFORMER "Motorhead"
    INDEX 01 10:59:56
  TRACK 05 AUDIO
    TITLE "Do You Believe"
    PERFORMER "Motorhead"
    INDEX 01 14:16:60
  TRACK 06 AUDIO
    TITLE "Death Machine"
    PERFORMER "Motorhead"
    INDEX 01 17:16:27
  TRACK 07 AUDIO
    TITLE "Dust And Glass"
    PERFORMER "Motorhead"
    INDEX 01 19:54:15
  TRACK 08 AUDIO
    TITLE "Going To Mexico"
    PERFORMER "Motorhead"
    INDEX 01 22:45:31
  TRACK 09 AUDIO
    TITLE "Silence When You Speak To Me"
    PERFORMER "Motorhead"
    INDEX 01 25:37:29
  TRACK 10 AUDIO
    TITLE "Crying Shame"
    PERFORMER "Motorhead"
    INDEX 01 30:07:37
  TRACK 11 AUDIO
    TITLE "Queen Of The Damned"
    PERFORMER "Motorhead"
    INDEX 01 34:35:66
  TRACK 12 AUDIO
    TITLE "Knife"
    PERFORMER "Motorhead"
    INDEX 01 37:16:63
  TRACK 13 AUDIO
    TITLE "Keep Your Powder Dry"
    PERFORMER "Motorhead"
    INDEX 01 40:14:25
  TRACK 14 AUDIO
    TITLE "Paralyzed"
    PERFORMER "Motorhead"
    INDEX 01 44:08:32
[Профиль] [ЛС]
Показать сообщения:    

Текущее время: Сегодня 22:42

Часовой пояс: GMT



Вы не можете начинать темы
Вы не можете отвечать на сообщения
Вы не можете редактировать свои сообщения
Вы не можете удалять свои сообщения
Вы не можете голосовать в опросах
Вы не можете прикреплять файлы к сообщениям
Вы не можете скачивать файлы