(Hard Rock) Mothership - Mothership - 2013, FLAC (image + .cue), lossless

 
Автор Сообщение

sergej644 ®

Пол:

Стаж: 4 года 11 месяцев

Сообщений: 6035

Откуда: Soviet Union



Награды: Нет

Торрент-статистика

Создавать темы 29-Июл-2014 17:11

[Цитировать]

-Mothership - Mothership- Страна: USA || Жанр: Hard Rock || Год выпуска: 2013 || Формат: FLAC (image + .cue) || Битрейт аудио: lossless || Продолжительность: 00:45:15- -

треклист

01. Hallucination (05:09)
02. Cosmic Rain (04:55)
03. City Nights (04:08)
04. Angel Of Death (06:52)
05. Win Or Lose (05:58)
06. Elenin (05:17)
07. Eagle Soars (04:39)
08. Lunar Master (08:14)

лог создания рипа

CUERipper v2.1.5 Copyright (C) 2008-13 Grigory Chudov
EAC extraction logfile from 8. June 2013, 13:07
Mothership / Mothership
Used drive  : Optiarc DVD RW AD-7280S   Adapter: 1  ID: 0
Read mode               : Secure
Utilize accurate stream : Yes
Defeat audio cache      : Yes
Make use of C2 pointers : No
Read offset correction                      : 48
Overread into Lead-In and Lead-Out          : No
Fill up missing offset samples with silence : Yes
Delete leading and trailing silent blocks   : No
Null samples used in CRC calculations       : Yes
Used interface                              : Native Win32 interface for Win NT & 2000
Used output format : Internal WAV Routines
Sample format      : 44.100 Hz; 16 Bit; Stereo
TOC of the extracted CD
     Track |   Start  |  Length  | Start sector | End sector
    ---------------------------------------------------------
        1  |  0:00.00 |  5:09.10 |         0    |    23184
        2  |  5:09.10 |  4:55.15 |     23185    |    45324
        3  | 10:04.25 |  4:08.69 |     45325    |    63993
        4  | 14:13.19 |  6:52.55 |     63994    |    94948
        5  | 21:05.74 |  5:58.10 |     94949    |   121808
        6  | 27:04.09 |  5:17.22 |    121809    |   145605
        7  | 32:21.31 |  4:39.20 |    145606    |   166550
        8  | 37:00.51 |  8:14.24 |    166551    |   203624
Range status and errors
Selected range
     Filename C:\Documents and Settings\User\Мои документы\Моя музыка\Mothership\2013 - Mothership\Mothership - Mothership.wav
     Peak level 99.8 %
     Range quality 100.0 %
     Test CRC A3CBE020
     Copy CRC A3CBE020
     Copy OK
No errors occurred
AccurateRip summary
Track  1  not present in database
Track  2  not present in database
Track  3  not present in database
Track  4  not present in database
Track  5  not present in database
Track  6  not present in database
Track  7  not present in database
Track  8  not present in database
None of the tracks are present in the AccurateRip database
End of status report

содержание индексной карты *cue

REM DISCID 5D0A9B08
PERFORMER "Mothership"
TITLE "Mothership"
REM DATE 2013
REM COMMENT "CUERipper v2.1.5 Copyright (C) 2008-13 Grigory Chudov"
FILE "Mothership - Mothership.flac" WAVE
  TRACK 01 AUDIO
    PERFORMER "Mothership"
    TITLE "Hallucination"
    INDEX 01 00:00:00
  TRACK 02 AUDIO
    PERFORMER "Mothership"
    TITLE "Cosmic Rain"
    INDEX 01 05:09:10
  TRACK 03 AUDIO
    PERFORMER "Mothership"
    TITLE "City Nights"
    INDEX 01 10:04:25
  TRACK 04 AUDIO
    PERFORMER "Mothership"
    TITLE "Angel Of Death"
    INDEX 01 14:13:19
  TRACK 05 AUDIO
    PERFORMER "Mothership"
    TITLE "Win Or Lose"
    INDEX 01 21:05:74
  TRACK 06 AUDIO
    PERFORMER "Mothership"
    TITLE "Elenin"
    INDEX 01 27:04:09
  TRACK 07 AUDIO
    PERFORMER "Mothership"
    TITLE "Eagle Soars"
    INDEX 01 32:21:31
  TRACK 08 AUDIO
    PERFORMER "Mothership"
    TITLE "Lunar Master"
    INDEX 01 37:00:51
[Профиль] [ЛС]
Показать сообщения:    

Текущее время: Сегодня 11:55

Часовой пояс: GMT



Вы не можете начинать темы
Вы не можете отвечать на сообщения
Вы не можете редактировать свои сообщения
Вы не можете удалять свои сообщения
Вы не можете голосовать в опросах
Вы не можете прикреплять файлы к сообщениям
Вы не можете скачивать файлы