Monte Kristo - Sherry Mi-Sai (2007) [APE|Lossless]<Italo-Disco>

 
Автор Сообщение

sergej644 ®

Пол:

Стаж: 4 года 11 месяцев

Сообщений: 6035

Откуда: Soviet Union



Награды: Нет

Торрент-статистика

Создавать темы 24-Дек-2014 22:45

[Цитировать]

-Monte Kristo - Sherry Mi-Sai (2007)- Год: 2007
Лейбл: ESonCD
Каталог #: 200705-2
Жанр: Italo-Disco
Продолжительность: 00:40:45
Кодек: APE
Битрейт: Lossless
Тип битрейта: image+.cue
Треклист:
01. The Girl Of Lucifer (Vocal) 5:26
02. Sherry Mi-Sai 5:59
03. Money For Your Love 4:44
04. Give Me Your Night (A Touch Of Love) 5:43
05. Lady Valentine 5:51
06. The Girl Of Lucifer (Instrumental) 5:27
07. La Vie D'un Enfant (Vocal) 3:46
08. La Vie D'un Enfant (Instrumental) 3:46

Отчёт ЕАС&#58;

Exact Audio Copy V0.99 prebeta 5 from 4. May 2009
Отчёт EAC об извлечении, выполненном 5. сентября 2009, 7:03
Monte Kristo / Sherry Mi-Sai
Дисковод: Optiarc DVD RW AD-5200A Adapter: 0 ID: 0
Режим чтения : Достоверность
Использование точного потока : Да
Отключение кэша аудио : Да
Использование указателей C2 : Нет
Коррекция смещения при чтении : 48
Способность читать области Lead-in и Lead-out : Нет
Заполнение пропущенных сэмплов тишиной : Да
Удаление блоков с тишиной в начале и конце : Нет
При вычислениях CRC использовались нулевые сэмплы : Да
Интерфейс : Установленный внешний ASPI-интерфейс
Выходной формат : Внутренние WAV-операции
Формат сэмплов : 44.100 Гц; 16 бит; стерео
TOC извлечённого CD
Трек | Старт | Длительность | Начальный сектор | Конечный сектор
---------------------------------------------------------------------
1 | 0:00.00 | 5:26.28 | 0 | 24477
2 | 5:26.28 | 5:59.62 | 24478 | 51464
3 | 11:26.15 | 4:44.50 | 51465 | 72814
4 | 16:10.65 | 5:43.16 | 72815 | 98555
5 | 21:54.06 | 5:51.13 | 98556 | 124893
6 | 27:45.19 | 5:27.53 | 124894 | 149471
7 | 33:12.72 | 3:46.48 | 149472 | 166469
8 | 36:59.45 | 3:46.60 | 166470 | 183479
Характеристики диапазона извлечения и сообщения об ошибках
Выбранный диапазон
Имя файла E:\Monte Kristo - Sherry Mi-Sai\Monte Kristo - Sherry Mi-Sai.wav
Пиковый уровень 99.4 %
Качество диапазона 100.0 %
CRC теста 0B2201F9
CRC копии 0B2201F9
Копирование... OK
Ошибок не произошло
AccurateRip: сводка
Трек 1 нет в базе данных
Трек 2 нет в базе данных
Трек 3 нет в базе данных
Трек 4 нет в базе данных
Трек 5 нет в базе данных
Трек 6 нет в базе данных
Трек 7 нет в базе данных
Трек 8 нет в базе данных
Ни одного трека нет в базе AccurateRip
Конец отчёта

Отчёт auCDtect Task manager&#58;

-----------------------
DON'T MODIFY THIS FILE
-----------------------
PERFORMER: auCDtect Task Manager, ver. 1.6.0 RC1 build 1.6.0.1
Copyright (c) 2008-2010 y-soft. All rights reserved
http://y-soft.org
ANALYZER: auCDtect: CD records authenticity detector, version 0.8.2
Copyright (c) 2004 Oleg Berngardt. All rights reserved.
Copyright (c) 2004 Alexander Djourik. All rights reserved.
FILE: Monte Kristo - Sherry Mi-Sai.ape
  Size: 283776000 Hash: 843E95F78235A9505E0129C94C0F2F66 Accuracy: -m0
  Conclusion: CDDA 100%
  Signature: 6381C4963B5880741D8953637BDC0BD30A57F2A7
[Профиль] [ЛС]

Создавать темы 13-Авг-2015 10:41 (спустя 7 месяцев 20 дней)

Топик был перенесен из форума Зарубежная в форум Technopop, Eurodance, Disco
sergej644
 
Кто просматривает тему:

Показать сообщения:    

Текущее время: Сегодня 20:10

Часовой пояс: GMT



Вы не можете начинать темы
Вы не можете отвечать на сообщения
Вы не можете редактировать свои сообщения
Вы не можете удалять свои сообщения
Вы не можете голосовать в опросах
Вы не можете прикреплять файлы к сообщениям
Вы не можете скачивать файлы