Monster Magnet. Rock Hard Festival 2014 [2014, Heavy metal/Stoner metal/Hard rock/Psychedelic rock/Space rock, HDTV 720p]

 
Автор Сообщение

reversefile ®

Пол:

Стаж: 4 года 5 месяцев

Сообщений: 842

Откуда: ReverseFile.org



Награды: Нет

Торрент-статистика

Создавать темы 11-Авг-2014 19:02

[Цитировать]

Monster Magnet. Rock Hard Festival 2014
Жанр: Heavy metal/Stoner metal/Hard rock/Psychedelic rock/Space rock
Продолжительность: 00:41:35
Год выпуска: 2014
Описание: Выступление американского rock бэнда Monster Magnet на рок фестивале Rock Hard Festival на сцене Amphitheater Gelsenkirchen в одноименном немецком городе 2014 jun08
Доп. информация: Собственная запись со спутникового канала WDR 2014 jun15
Треклист: Superjudge
Medicine
Nod Scene
Twin Earth
Dopes to Infinity
Tractor
Last Patrol
Look to Your Orb for the Warning
Powertrip
Space Lord
Качество: HDTV 720p
Контейнер: TS
Видео кодек: H.264
Аудио кодек: AC3
Видео: Mpeg4 AVC, 1280x720, 9080 kbps, 50 fps Progressive
Аудио: AC3, 448 kbps, 48 kHz, stereo
Аудио 2: MP2, 192 kbps, 48 kHz, stereo
Аудио 3: MP2, 192 kbps, 48 kHz, stereo

Отчёт MediaInfo / BDInfo

GeneralID : 1 (0x1)Complete name : F:\Monster Magnet. Rock Hard Festival 2014.tsFormat : MPEG-TSFile size : 3.03 GiBDuration : 41mn 35sOverall bit rate mode : VariableOverall bit rate : 10.4 Mbps
VideoID : 5501 (0x157D)Menu ID : 1 (0x1)Format : AVCFormat/Info : Advanced Video CodecFormat profile : High@L4.0Format settings, CABAC : YesFormat settings, ReFrames : 4 framesCodec ID : 27Duration : 41mn 35sBit rate : 9 076 KbpsWidth : 1 280 pixelsHeight : 720 pixelsDisplay aspect ratio : 16:9Frame rate : 50.000 fpsColor space : YUVChroma subsampling : 4:2:0Bit depth : 8 bitsScan type : ProgressiveBits/(Pixel*Frame) : 0.197Stream size : 2.64 GiB (87%)
Audio #1ID : 5502 (0x157E)Menu ID : 1 (0x1)Format : MPEG AudioFormat version : Version 1Format profile : Layer 2Codec ID : 3Duration : 41mn 35sBit rate mode : ConstantBit rate : 192 KbpsChannel(s) : 2 channelsSampling rate : 48.0 KHzCompression mode : LossyStream size : 57.1 MiB (2%)Language : German
Audio #2ID : 5503 (0x157F)Menu ID : 1 (0x1)Format : MPEG AudioFormat version : Version 1Format profile : Layer 2Codec ID : 3Duration : 41mn 35sBit rate mode : ConstantBit rate : 192 KbpsChannel(s) : 2 channelsSampling rate : 48.0 KHzCompression mode : LossyStream size : 57.1 MiB (2%)
Audio #3ID : 5506 (0x1582)Menu ID : 1 (0x1)Format : AC-3Format/Info : Audio Coding 3Mode extension : CM (complete main)Format settings, Endianness : BigCodec ID : 6Duration : 41mn 35sBit rate mode : ConstantBit rate : 448 KbpsChannel(s) : 2 channelsChannel positions : Front: L RSampling rate : 48.0 KHzBit depth : 16 bitsCompression mode : LossyStream size : 133 MiB (4%)Language : German
TextID : 5504 (0x1580)-100Menu ID : 1 (0x1)Format : TeletextLanguage : German
MenuID : 5520 (0x1590)Menu ID : 1 (0x1)Duration : 41mn 35sList : 5501 (0x157D) (AVC) / 5502 (0x157E) (MPEG Audio, German) / 5503 (0x157F) (MPEG Audio) / 5506 (0x1582) (AC-3, German) / 5504 (0x1580) ()Language : / German / / German

Скриншоты

[Профиль] [ЛС]
Показать сообщения:    

Текущее время: Сегодня 09:58

Часовой пояс: GMT



Вы не можете начинать темы
Вы не можете отвечать на сообщения
Вы не можете редактировать свои сообщения
Вы не можете удалять свои сообщения
Вы не можете голосовать в опросах
Вы не можете прикреплять файлы к сообщениям
Вы не можете скачивать файлы