Modern Talking - Music & Video Stars (2013) [FLAC(image+.cue)|Lossless]<Euro-Disco>

 
Автор Сообщение

sergej644 ®

Пол:

Стаж: 4 года 11 месяцев

Сообщений: 6045

Откуда: Soviet Union



Награды: Нет

Торрент-статистика

Создавать темы 25-Дек-2014 00:00

[Цитировать]

-Modern Talking - Music & Video Stars (2013)- Год: 2013
Жанр: Euro-Disco
Страна: Germany
Издатель (лейбл): Sony Music
Каталожный №: 88883 73230 2
Продолжительность: 01:05:50
Кодек: FLAC
Битрейт: Lossless
Тип рипа: image+.cue
Источник (релизер): mapper
Треклист:
01. You're My Heart, You're My Soul (03:49)
02. You Can Win If You Want (03:43)
03. Cheri Cheri Lady (03:45)
04. Brother Louie (03:39)
05. Atlantis Is Calling (S.O.S. For Love) (03:47)
06. Geronimo's Cadilac (03:17)
07. Jet Airliner (04:21)
08. In 100 Years (06:39)
09. You Are Not Alone (03:41)
10. Sexy Sexy Lover (03:34)
11. China In Her Eyes (03:46)
12. Don't Take Away My Heart (03:55)
13. Win The Race (03:36)
14. Last Exit To Brooklyn (03:16)
15. Ready For The Victory (03:31)
16. Juliet (03:38)
17. Tv Makes The Superstar (03:44)

Дополнительная информация&#58;

Аудиочасть альбома Music & Video Stars [CD+DVD]
http://www.discogs.com/Modern-Talking-Music-Video-Stars/release/4694784

Отчёт ЕАС&#58;

Exact Audio Copy V0.99 prebeta 5 from 4. May 2009
Отчёт EAC об извлечении, выполненном 15. декабря 2013, 22:36
Modern Talking / Music & Video Stars
Дисковод: PIONEER BD-RW   BDR-205   Adapter: 4  ID: 0
Режим чтения                 : Достоверность
Использование точного потока : Да
Отключение кэша аудио        : Да
Использование указателей C2  : Нет
Коррекция смещения при чтении                     : 677
Способность читать области Lead-in и Lead-out     : Нет
Заполнение пропущенных сэмплов тишиной            : Да
Удаление блоков с тишиной в начале и конце        : Нет
При вычислениях CRC использовались нулевые сэмплы : Да
Интерфейс                                         : Встроенный Win32-интерфейс для Win NT/2000
Выходной формат          : Пользовательский кодировщик
Выбранный битрейт        : 768 kBit/s
Качество                 : Высокий
Добавление ID3-тэга      : Нет
Утилита сжатия           : C:\Program Files\Exact Audio Copy\FLAC\FLAC.EXE
Дополнительные параметры : -6 -V -T "ARTIST=%a" -T "TITLE=%t" -T "ALBUM=%g" -T "DATE=%y" -T "TRACKNUMBER=%n" -T "GENRE=%m" -T "COMMENT=%e" %s -o %d
TOC извлечённого CD
     Трек |   Старт  | Длительность | Начальный сектор | Конечный сектор
    ---------------------------------------------------------------------
       1  |  0:00.00 |    3:49.37   |           0      |      17211
       2  |  3:49.37 |    3:43.14   |       17212      |      33950
       3  |  7:32.51 |    3:45.24   |       33951      |      50849
       4  | 11:18.00 |    3:39.31   |       50850      |      67305
       5  | 14:57.31 |    3:47.74   |       67306      |      84404
       6  | 18:45.30 |    3:17.43   |       84405      |      99222
       7  | 22:02.73 |    4:21.74   |       99223      |     118871
       8  | 26:24.72 |    6:39.37   |      118872      |     148833
       9  | 33:04.34 |    3:41.61   |      148834      |     165469
      10  | 36:46.20 |    3:34.14   |      165470      |     181533
      11  | 40:20.34 |    3:46.03   |      181534      |     198486
      12  | 44:06.37 |    3:55.20   |      198487      |     216131
      13  | 48:01.57 |    3:36.29   |      216132      |     232360
      14  | 51:38.11 |    3:16.66   |      232361      |     247126
      15  | 54:55.02 |    3:31.57   |      247127      |     263008
      16  | 58:26.59 |    3:38.42   |      263009      |     279400
      17  | 62:05.26 |    3:44.55   |      279401      |     296255
Характеристики диапазона извлечения и сообщения об ошибках
Выбранный диапазон
     Имя файла D:\Modern Talking - Music & Video Stars.wav
     Пиковый уровень 100.0 %
     Качество диапазона 100.0 %
     CRC копии 7DF0C8D7
     Копирование... OK
Ошибок не произошло
Конец отчёта

Отчёт auCDtect Task manager&#58;

-----------------------
DON'T MODIFY THIS FILE
-----------------------
PERFORMER: auCDtect Task Manager, ver. 1.6.0 RC1 build 1.6.0.1
Copyright (c) 2008-2010 y-soft. All rights reserved
http://y-soft.org
ANALYZER: auCDtect: CD records authenticity detector, version 0.8.2
Copyright (c) 2004 Oleg Berngardt. All rights reserved.
Copyright (c) 2004 Alexander Djourik. All rights reserved.
FILE: Modern Talking - Music & Video Stars.flac
  Size: 516851189 Hash: 3359F4527A313218BCB4F8B58A22B9AF Accuracy: -m0
  Conclusion: CDDA 100%
  Signature: A9B417585A8F08A5FE331D08A1979AFABBE2C34E

Содержание индексной карты (.CUE&#41;

REM GENRE Pop
REM DATE 2013
REM DISCID F90F6E11
REM COMMENT "ExactAudioCopy v0.99pb5"
PERFORMER "Modern Talking"
TITLE "Music & Video Stars"
FILE "Modern Talking - Music & Video Stars.flac" WAVE
  TRACK 01 AUDIO
    TITLE "You're My Heart, You're My Soul"
    PERFORMER "Modern Talking"
    INDEX 01 00:00:00
  TRACK 02 AUDIO
    TITLE "You Can Win If You Want"
    PERFORMER "Modern Talking"
    INDEX 00 03:48:37
    INDEX 01 03:49:37
  TRACK 03 AUDIO
    TITLE "Cheri Cheri Lady"
    PERFORMER "Modern Talking"
    INDEX 00 07:31:51
    INDEX 01 07:32:51
  TRACK 04 AUDIO
    TITLE "Brother Louie"
    PERFORMER "Modern Talking"
    INDEX 00 11:17:00
    INDEX 01 11:18:00
  TRACK 05 AUDIO
    TITLE "Atlantis Is Calling (S.O.S. For Love)"
    PERFORMER "Modern Talking"
    INDEX 00 14:56:32
    INDEX 01 14:57:31
  TRACK 06 AUDIO
    TITLE "Geronimo's Cadilac"
    PERFORMER "Modern Talking"
    INDEX 00 18:44:30
    INDEX 01 18:45:30
  TRACK 07 AUDIO
    TITLE "Jet Airliner"
    PERFORMER "Modern Talking"
    INDEX 00 22:01:73
    INDEX 01 22:02:73
  TRACK 08 AUDIO
    TITLE "In 100 Years"
    PERFORMER "Modern Talking"
    INDEX 00 26:23:73
    INDEX 01 26:24:72
  TRACK 09 AUDIO
    TITLE "You Are Not Alone"
    PERFORMER "Modern Talking"
    INDEX 00 33:03:34
    INDEX 01 33:04:34
  TRACK 10 AUDIO
    TITLE "Sexy Sexy Lover"
    PERFORMER "Modern Talking"
    INDEX 00 36:45:20
    INDEX 01 36:46:20
  TRACK 11 AUDIO
    TITLE "China In Her Eyes"
    PERFORMER "Modern Talking"
    INDEX 00 40:19:34
    INDEX 01 40:20:34
  TRACK 12 AUDIO
    TITLE "Don't Take Away My Heart"
    PERFORMER "Modern Talking"
    INDEX 00 44:05:38
    INDEX 01 44:06:37
  TRACK 13 AUDIO
    TITLE "Win The Race"
    PERFORMER "Modern Talking"
    INDEX 00 48:00:57
    INDEX 01 48:01:57
  TRACK 14 AUDIO
    TITLE "Last Exit To Brooklyn"
    PERFORMER "Modern Talking"
    INDEX 00 51:37:11
    INDEX 01 51:38:11
  TRACK 15 AUDIO
    TITLE "Ready For The Victory"
    PERFORMER "Modern Talking"
    INDEX 00 54:54:02
    INDEX 01 54:55:02
  TRACK 16 AUDIO
    TITLE "Juliet"
    PERFORMER "Modern Talking"
    INDEX 00 58:25:59
    INDEX 01 58:26:59
  TRACK 17 AUDIO
    TITLE "Tv Makes The Superstar"
    PERFORMER "Modern Talking"
    INDEX 00 62:04:28
    INDEX 01 62:05:26

Спектрограмма&#58;

Время раздачи: Пн-Пт с 18:00 до 22:00, Сб-Вс с 09:00 до 23:30-
[Профиль] [ЛС]

Создавать темы 13-Авг-2015 10:41 (спустя 7 месяцев 19 дней)

Топик был перенесен из форума Зарубежная в форум Technopop, Eurodance, Disco
sergej644
 
Показать сообщения:    

Текущее время: Сегодня 06:06

Часовой пояс: GMT



Вы не можете начинать темы
Вы не можете отвечать на сообщения
Вы не можете редактировать свои сообщения
Вы не можете удалять свои сообщения
Вы не можете голосовать в опросах
Вы не можете прикреплять файлы к сообщениям
Вы не можете скачивать файлы