MMA. UFC on FOX 21: Maia vs. Condit + Main Card [23.07] (2016) HDTV 1080i

 
Автор Сообщение

Russian Mafia ®

Пол:

Стаж: 1 год 8 месяцев

Сообщений: 4247



Награды: 10 (Подробнее)

Top Releaser 4 (Количество: 1) Mega Seeder 2 (Количество: 1) Mega Seeder 4 (Количество: 1)
Торрент-статистика

Создавать темы 28-Авг-2016 06:52

[Цитировать]

UFC on FOX 21
Maia vs. Condit
Main Card
Вид спорта: MMA
Участники: Main Card:
[Welterweight] Demian Maia vs. Carlos Condit
[Featherweight] Anthony Pettis vs. Charles Oliveira
[Women's Strawweight] Paige VanZant vs. Bec Rawlings
[Lightweight] Joe Lauzon vs. Jim Miller
Комментарий: Русский / Интершум
Описание: "UFC on FOX 21: Maia vs. Condit", прошедший 27 августа 2016 года в "Rogers Arena", Ванкувер, провинция Британская Колумбия, Канада.
Автор записи: Mr. Drax
Качество: HDTV
Формат: TS
Видео: 1920x1080i, H.264, 25 fps, ~ 10,7 Mbps
Аудио #1: MP2, 48 kHz, 2 ch, ~192.00 kbps
Аудио #2: MP2, 48 kHz, 2 ch, ~192.00 kbps
------------------------

Продолжительность

01:51:46

Скриншоты

Media Info

Полное имя : H:Other sportsUFC Fight Night on Fox 21. Maia vs. Condit + Main Card.27.08.2016. 1080i.ts
Формат : MPEG-TS
Размер файла : 9,09 Гбайт
Продолжительность : 1 ч. 51 м.
Режим общего битрейта : Переменный
Общий поток : 11,6 Мбит/сек
Видео
Идентификатор : 204 (0xCC)
Идентификатор меню : 2204 (0x89C)
Формат : AVC
Формат/Информация : Advanced Video Codec
Профиль формата : High@L4
Параметр CABAC формата : Да
Параметр ReFrames формата : 4 кадра
Параметр GOP формата : M=4, N=28
Идентификатор кодека : 27
Продолжительность : 1 ч. 51 м.
Битрейт : 10,7 Мбит/сек
Ширина : 1920 пикселей
Высота : 1080 пикселей
Соотношение сторон : 16:9
Частота кадров : 25,000 кадров/сек
Стандарт вещания : Component
Цветовое пространство : YUV
Субдискретизация насыщенности : 4:2:0
Битовая глубина : 8 бит
Тип развёртки : Чересстрочная
Порядок развёртки : Верхнее поле первое
Бит/(Пиксели*Кадры) : 0.206
Размер потока : 8,34 Гбайт (92%)
Цветовой диапазон : Limited
Основные цвета : BT.709
Характеристики трансфера : BT.709
Коэффициенты матрицы : BT.709
Аудио #1
Идентификатор : 304 (0x130)
Идентификатор меню : 2204 (0x89C)
Формат : MPEG Audio
Версия формата : Version 1
Профиль формата : Layer 2
Идентификатор кодека : 3
Продолжительность : 1 ч. 51 м.
Вид битрейта : Постоянный
Битрейт : 192 Кбит/сек
Каналы : 2 канала
Частота : 48,0 КГц
Метод сжатия : С потерями
Размер потока : 154 Мбайт (2%)
Язык : Russian
Аудио #2
Идентификатор : 305 (0x131)
Идентификатор меню : 2204 (0x89C)
Формат : MPEG Audio
Версия формата : Version 1
Профиль формата : Layer 2
Идентификатор кодека : 3
Продолжительность : 1 ч. 51 м.
Вид битрейта : Постоянный
Битрейт : 192 Кбит/сек
Каналы : 2 канала
Частота : 48,0 КГц
Метод сжатия : С потерями
Размер потока : 154 Мбайт (2%)
Текст
Идентификатор : 306 (0x132)-888
Идентификатор меню : 2204 (0x89C)
Формат : Teletext Subtitle
Язык : Russian
Язык, дополнительно : For hearing impaired people
Меню
Идентификатор : 104 (0x68)
Идентификатор меню : 2204 (0x89C)
Продолжительность : 1 ч. 51 м.
Список : 204 (0xCC) (AVC) / 304 (0x130) (MPEG Audio, Russian) / 305 (0x131) (MPEG Audio) / 306 (0x132) ()
Язык : / Russian
[Профиль] [ЛС]
Кто просматривает тему:

Показать сообщения:    

Текущее время: Сегодня 20:03

Часовой пояс: GMT



Вы не можете начинать темы
Вы не можете отвечать на сообщения
Вы не можете редактировать свои сообщения
Вы не можете удалять свои сообщения
Вы не можете голосовать в опросах
Вы не можете прикреплять файлы к сообщениям
Вы не можете скачивать файлы