MMA. UFC Fight Night Fox 20. Holm vs. Shevchenko + Main Card [23.07] (2016) HDTV 1080

 
Автор Сообщение

Russian Mafia ®

Пол:

Стаж: 1 год 8 месяцев

Сообщений: 4257



Награды: 10 (Подробнее)

Mega Seeder 3 (Количество: 1) Top Releaser 3 (Количество: 1) Top Releaser 5 (Количество: 1)
Торрент-статистика

Создавать темы 24-Июл-2016 08:13

[Цитировать]

UFC Fight Night Fox 20
Holm vs. Shevchenko
Main Card
Вид спорта: MMA
Участники: Main Card:
12. Women's Bantamweight Holly Holm vs Valentina Shevchenko
11. Lightweight Edson Barboza vs Gilbert Melendez
10. Heavyweight Francis Ngannou vs Bojan Mihajlović
9. Women's Strawweight Felice Herrig vs Kailin Curran
Комментарий: Русский, Интершум
Описание: UFC Fight Night Fox 20. Holm vs. Shevchenko + Main Card
Автор записи: Mr. Drax

Качество: HDTV
Формат: TS
Видео: 1920x1080i, H.264, 25 fps, ~ 11,9 Mbps
Аудио #1: MP2, 48 kHz, 2 ch, ~192.00 kbps
Аудио #2: MP2, 48 kHz, 2 ch, ~192.00 kbps
------------------------

Продолжительность

02:09:29

Скриншоты

Media Info

Полное имя : H:Other sportsUFC Fight Night Fox 20. Holm vs. Shevchenko + Main Card. 1080i.ts
Формат : MPEG-TS
Размер файла : 11,7 Гбайт
Продолжительность : 2 ч. 9 м.
Режим общего битрейта : Переменный
Общий поток : 12,9 Мбит/сек
Видео
Идентификатор : 204 (0xCC)
Идентификатор меню : 2204 (0x89C)
Формат : AVC
Формат/Информация : Advanced Video Codec
Профиль формата : High@L4
Параметр CABAC формата : Да
Параметр ReFrames формата : 4 кадра
Идентификатор кодека : 27
Продолжительность : 2 ч. 9 м.
Битрейт : 11,9 Мбит/сек
Ширина : 1920 пикселей
Высота : 1080 пикселей
Соотношение сторон : 16:9
Частота кадров : 25,000 кадров/сек
Стандарт вещания : Component
Цветовое пространство : YUV
Субдискретизация насыщенности : 4:2:0
Битовая глубина : 8 бит
Тип развёртки : Чересстрочная
Порядок развёртки : Верхнее поле первое
Бит/(Пиксели*Кадры) : 0.230
Размер потока : 10,8 Гбайт (92%)
Цветовой диапазон : Limited
Основные цвета : BT.709
Характеристики трансфера : BT.709
Коэффициенты матрицы : BT.709
Аудио #1
Идентификатор : 304 (0x130)
Идентификатор меню : 2204 (0x89C)
Формат : MPEG Audio
Версия формата : Version 1
Профиль формата : Layer 2
Идентификатор кодека : 3
Продолжительность : 2 ч. 9 м.
Вид битрейта : Постоянный
Битрейт : 192 Кбит/сек
Каналы : 2 канала
Частота : 48,0 КГц
Метод сжатия : С потерями
Размер потока : 178 Мбайт (1%)
Язык : Russian
Аудио #2
Идентификатор : 305 (0x131)
Идентификатор меню : 2204 (0x89C)
Формат : MPEG Audio
Версия формата : Version 1
Профиль формата : Layer 2
Идентификатор кодека : 3
Продолжительность : 2 ч. 9 м.
Вид битрейта : Постоянный
Битрейт : 192 Кбит/сек
Каналы : 2 канала
Частота : 48,0 КГц
Метод сжатия : С потерями
Размер потока : 178 Мбайт (1%)
Текст
Идентификатор : 306 (0x132)-888
Идентификатор меню : 2204 (0x89C)
Формат : Teletext Subtitle
Язык : Russian
Язык, дополнительно : For hearing impaired people
Меню
Идентификатор : 104 (0x68)
Идентификатор меню : 2204 (0x89C)
Продолжительность : 2 ч. 9 м.
Список : 204 (0xCC) (AVC) / 304 (0x130) (MPEG Audio, Russian) / 305 (0x131) (MPEG Audio) / 306 (0x132) ()
Язык : / Russian
[Профиль] [ЛС]
Показать сообщения:    

Текущее время: Сегодня 09:59

Часовой пояс: GMT



Вы не можете начинать темы
Вы не можете отвечать на сообщения
Вы не можете редактировать свои сообщения
Вы не можете удалять свои сообщения
Вы не можете голосовать в опросах
Вы не можете прикреплять файлы к сообщениям
Вы не можете скачивать файлы