MMA. UFC Fight Night 88. Almeida vs. Cardrandt + Main Card [29.05] (2016) HDTVRip | 25fps

 
Автор Сообщение

Russian Mafia ®

Пол:

Стаж: 1 год 8 месяцев

Сообщений: 4257



Награды: 10 (Подробнее)

Mega Seeder 3 (Количество: 1) Top Releaser 3 (Количество: 1) Top Releaser 4 (Количество: 1)
Торрент-статистика

Создавать темы 30-Май-2016 07:28

[Цитировать]

UFC Fight Night 88
Almeida vs. Cardrandt + Main Card
Вид спорта: MMA
Участники:
Bantamweight Cody Garbrandt vs. Thomas Almeida
Featherweight Jeremy Stephens vs. Renan Barão
Welterweight Rick Story vs. Tarec Saffiedine
Middleweight Chris Camozzi vs. Vitor Miranda
Welterweight Lorenz Larkin vs. Jorge Masvidal
Lightweight Paul Felder vs. Josh Burkman
Комментарий: Русский
Описание: UFC Fight Night: Almeida vs. Garbrandt (also known as UFC Fight Night 88) was a mixed martial arts event held on May 29, 2016 at the Mandalay Bay Events Center in Las Vegas, Nevada
Автор записи: Mr. Drax

Качество: HDTV
Формат видео: TS
Видео: H.264, 720x576 (4:3) @ 1024x576 (16:9), 25 fps, ~4300 kbps avg, 0.421 bit/pixel
Аудио: MP2, 48,0 КГц, 2ch stereo, 192 Кбит/сек

Media Info

Полное имя : H:Other sportsUFC Fight Night 88. Almeida vs. Garbrandt.29.05.2016.576i.ts
Формат : MPEG-TS
Размер файла : 6,60 Гбайт
Продолжительность : 3 ч. 16 м.
Режим общего битрейта : Переменный
Общий поток : 4796 Кбит/сек
Видео
Идентификатор : 331 (0x14B)
Идентификатор меню : 10211 (0x27E3)
Формат : MPEG Video
Версия формата : Version 2
Профиль формата : Main@Main
Параметр BVOP формата : Да
Параметр матрицы формата : Выборочная
Параметр GOP формата : Variable
Структура изображения : Frame
Идентификатор кодека : 2
Продолжительность : 3 ч. 16 м.
Вид битрейта : Переменный
Битрейт : 4365 Кбит/сек
Максимальный битрейт : 15,0 Мбит/сек
Ширина : 720 пикселей
Высота : 576 пикселей
Соотношение сторон : 16:9
Частота кадров : 25,000 кадров/сек
Стандарт вещания : PAL
Цветовое пространство : YUV
Субдискретизация насыщенности : 4:2:0
Битовая глубина : 8 бит
Тип развёртки : Чересстрочная
Порядок развёртки : Верхнее поле первое
Метод сжатия : С потерями
Бит/(Пиксели*Кадры) : 0.421
Временной код первого кадра : 00:00:00:00
Оригинал временного кода : Group of pictures header
GOP, открыто/закрыто : Открыто
Размер потока : 6,01 Гбайт (91%)
Аудио
Идентификатор : 420 (0x1A4)
Идентификатор меню : 10211 (0x27E3)
Формат : MPEG Audio
Версия формата : Version 1
Профиль формата : Layer 2
Идентификатор кодека : 3
Продолжительность : 3 ч. 16 м.
Вид битрейта : Постоянный
Битрейт : 192 Кбит/сек
Каналы : 2 канала
Частота : 48,0 КГц
Метод сжатия : С потерями
Задержка видео : 15 мс.
Размер потока : 270 Мбайт (4%)
Язык : Russian
------------------------

Продолжительность

03:16:58

Скриншоты

[Профиль] [ЛС]
Показать сообщения:    

Текущее время: Сегодня 13:48

Часовой пояс: GMT



Вы не можете начинать темы
Вы не можете отвечать на сообщения
Вы не можете редактировать свои сообщения
Вы не можете удалять свои сообщения
Вы не можете голосовать в опросах
Вы не можете прикреплять файлы к сообщениям
Вы не можете скачивать файлы