MMA. UFC Fight Night 88. Almeida vs. Cardrandt. Full Event [29.05] (2016) WEB-DL 720p

 
Автор Сообщение

Russian Mafia ®

Пол:

Стаж: 1 год 8 месяцев

Сообщений: 4252



Награды: 10 (Подробнее)

Mega Seeder 4 (Количество: 1) За внесенный вклад в развитие сайта (Количество: 1) Mega Seeder 3 (Количество: 1)
Торрент-статистика

Создавать темы 30-Май-2016 13:11

[Цитировать]

UFC Fight Night 88
Almeida vs. Cardrandt. Full Event
Вид спорта: MMA
Участники:
Early Prelims
[Bantamweight] Aljamain Sterling vs. Bryan Caraway
[Heavyweight] Chris De La Rocha vs. Adam Milstead
Preliminary Card
[Women's Bantamweight] Sara McMann vs. Jessica Eye
[Lightweight] Abel Trujillo vs. Jordan Rinaldi
[Middleweight] Jake Collier vs. Alberto Uda
[Lightweight] Erik Koch vs. Shane Campbell
Main Card
[Bantamweight] Thomas Almeida vs. Cody Garbrandt
[Featherweight] Renan Barão vs. Jeremy Stephens
[Welterweight] Tarec Saffiedine vs. Rick Story
[Middleweight] Chris Camozzi vs. Vitor Miranda
[Welterweight] Jorge Masvidal vs. Lorenz Larkin
[Lightweight] Josh Burkman vs. Paul Felder
Комментарий: Английский
Описание: Все бои турнира "UFC Fight Night 88: Almeida vs. Garbrandt", прошедшего 29 мая 2016 года в "Mandalay Bay Events Center", Лас Вегас, штат Невада, США.
Автор записи: Fight-BB
Качество: WEB-DL HD
Формат видео: MP4
Видео: 1280x720 (16:9), 29,970 fps, H264, ~4300 kbps avg, ~0.154 bit/pixel
Аудио: 44,1 kHz, AAC, 2 ch (L,R) ch, ~126.00 kbps avg

Media Info

Полное имя : E:SportUFC Fight Night 88. Almeida vs. Garbrandt (Full Event) [HD 720p, ENG]UFC.Fight.Night.88.720p.WEB-DL.H264.Fight-BB.mp4
Формат : MPEG-4
Профиль формата : Base Media
Идентификатор кодека : isom
Размер файла : 6,05 Гбайт
Продолжительность : 3 ч. 18 м.
Общий поток : 4378 Кбит/сек
Программа кодирования : Lavf56.40.101
Видео
Идентификатор : 1
Формат : AVC
Формат/Информация : Advanced Video Codec
Профиль формата : Main@L4
Параметр CABAC формата : Да
Параметр ReFrames формата : 3 кадра
Идентификатор кодека : avc1
Идентификатор кодека/Информация : Advanced Video Coding
Продолжительность : 3 ч. 18 м.
Битрейт : 4242 Кбит/сек
Ширина : 1280 пикселей
Высота : 720 пикселей
Соотношение сторон : 16:9
Режим частоты кадров : Постоянный
Частота кадров : 29,970 кадров/сек
Цветовое пространство : YUV
Субдискретизация насыщенности : 4:2:0
Битовая глубина : 8 бит
Тип развёртки : Прогрессивная
Бит/(Пиксели*Кадры) : 0.154
Размер потока : 5,87 Гбайт (97%)
Аудио
Идентификатор : 2
Формат : AAC
Формат/Информация : Advanced Audio Codec
Профиль формата : LC
Идентификатор кодека : 40
Продолжительность : 3 ч. 18 м.
Вид битрейта : Постоянный
Битрейт : 126 Кбит/сек
Каналы : 2 канала
Расположение каналов : Front: L R
Частота : 44,1 КГц
Метод сжатия : С потерями
Размер потока : 178 Мбайт (3%)
------------------------

Продолжительность

06:14:23

Скриншоты

[Профиль] [ЛС]
Показать сообщения:    

Текущее время: Сегодня 22:43

Часовой пояс: GMT



Вы не можете начинать темы
Вы не можете отвечать на сообщения
Вы не можете редактировать свои сообщения
Вы не можете удалять свои сообщения
Вы не можете голосовать в опросах
Вы не можете прикреплять файлы к сообщениям
Вы не можете скачивать файлы