Mister Пронька (мистер Пронька) (Леонид Носырев) [1991, Рисованный мультфильм, WEB-DLRip]

 
Автор Сообщение

TorrentFilm ®

Пол:

Стаж: 2 года

Сообщений: 7741



Награды: Нет

Торрент-статистика

Создавать темы 27-Окт-2015 00:08

[Цитировать]

Mister Пронька / Мистер Пронька
Страна: СССР
Жанр: Рисованный мультфильм
Продолжительность: 00:25:35
Год выпуска: 1991
Русские субтитры: нет
Режиссёр: Леонид Носырев
Роли озвучивали: Е. Леонов, А. Баранцев, А. Пятков, Н. Курнаков, Г. Вац, К. Вац, К. Румянова, Т. Ананченко, О. Голованова, Г. Качин, В. Стрельников
Описание: Комедийный мультфильм по мотивам сказки-скоморошины Б. Шергина «Пронька Грезной». В Россию приезжает богатый американец с заданием от правительства, обратить в «американску веру» кого-нибудь из русских. Американец находит на рынке оборванца Проньку и заключает с ним пари: он даёт Проньке денег и возможность торговать, и если тот в течение 15 лет не будет никак мыться, то весь доход Пронька может взять себе. Так и получилось. Выдержал Пронька. Так разбогател, что даже сам Царь-Государь был у него в должниках…
Доп. информация: «Союзмультфильм»
Авторы сценария: Л.Носырев, Ю. Коваль
Оператор: Н. Михайлова
Раздача группы:
Качество: WEBRip
Формат: AVI
Видео: 640x480 (1.33:1), 25 fps, XviD build 50 ~1099 kbps avg, 0.14 bit/pixel
Аудио: 32 kHz, MPEG Layer 3, 2 ch, ~96.00 kbps avg
Субтитры: нет

Подробные технические данные

Format : AVIFormat/Info : Audio Video InterleaveFile size : 221 MiBDuration : 25mn 35sOverall bit rate : 1 206 KbpsWriting application : VirtualDubMod 1.5.10.2 (build 2540/release)Writing library : VirtualDubMod build 2540/release
VideoID : 0Format : MPEG-4 VisualFormat profile : Advanced Simple@L5Format settings, BVOP : 1Format settings, QPel : NoFormat settings, GMC : No warppointsFormat settings, Matrix : Default (MPEG)Codec ID : XVIDCodec ID/Hint : XviDDuration : 25mn 35sBit rate : 1 100 KbpsWidth : 640 pixelsHeight : 480 pixelsDisplay aspect ratio : 4:3Frame rate : 25.000 fpsColor space : YUVChroma subsampling : 4:2:0Bit depth : 8 bitsScan type : ProgressiveCompression mode : LossyBits/(Pixel*Frame) : 0.143Stream size : 201 MiB (91%)Writing library : XviD 1.2.1 (UTC 2008-12-04)
AudioID : 1Format : MPEG AudioFormat version : Version 1Format profile : Layer 3Codec ID : 55Codec ID/Hint : MP3Duration : 25mn 35sBit rate mode : ConstantBit rate : 96.0 KbpsChannel(s) : 2 channelsSampling rate : 32.0 KHzCompression mode : LossyStream size : 17.6 MiB (8%)Alignment : Aligned on interleavesInterleave, duration : 40 ms (1.00 video frame)Interleave, preload duration : 504 msWriting library : LAME3.98rEncoding settings : -m s -V 4 -q 0 -lowpass 15.1 -b 96

Скриншоты

[Профиль] [ЛС]
Кто просматривает тему:

Показать сообщения:    

Текущее время: Сегодня 18:37

Часовой пояс: GMT



Вы не можете начинать темы
Вы не можете отвечать на сообщения
Вы не можете редактировать свои сообщения
Вы не можете удалять свои сообщения
Вы не можете голосовать в опросах
Вы не можете прикреплять файлы к сообщениям
Вы не можете скачивать файлы