Michael Schenker - Rock Hard Festival [2015 г.] (Hard Rock) [HDTVRip, 720p]

 
Автор Сообщение

sergej644 ®

Пол:

Стаж: 4 года 11 месяцев

Сообщений: 6041

Откуда: Soviet Union



Награды: Нет

Торрент-статистика

Создавать темы 30-Май-2015 08:28

[Цитировать]

-Michael Schenker - Rock Hard Festival --
Год выпуска: 2015 г.
Страна: Germany
Жанр: Hard Rock
Продолжительность: 01:09:18-Качество видео: HDTVRip
Контейнер: MKV
Стандарт разрешения: 720p
Видео кодек: MPEG4 AVC
Аудио кодек: AC3
Видео: 1280 x 720, 5746 kbps, 23,401 fps, 0.266 bit/pic
Аудио: AC - 3, 384 kbps, 6 ch, 48,0 kHz
-
Michael Schenker Group (сокращённо M.S.G.; в 1986—1992 годы группа называлась McAuley Schenker Group) — это основанная бывшим соло-гитаристом групп Scorpions и UFO Михаэлем Шенкером. Стилистику группы можно определить как классический хард-рок с упором на его мелодическую составляющую.-

Трэклист

01. Doctor Doctor
02. Live And Let Live
03. Lights Out
04. Where The Wild Winds Blow
05. Natural Thing
06. Victim Of Illusion
07. Lovedrive
08. Coast To Coast
09. Vigilante Man
10. Before The Devil Knows You're Dead
11. Lord Of The Lost And Lonely
12. Rock You Like A Hurricane
13. Rock Bottom

Media Info

Общее
Уникальный идентификатор                 : 168348648403719580577546155723716462494 (0x7EA6C532C2870C1E037BA147C20E879E)
Полное имя                               : D:\Torrent files\Michael Schenker - Rock Hard Festival [2015]\Michael Schenker - Rock Hard Festival [2015].mkv
Формат                                   : Matroska
Версия формата                           : Version 2
Размер файла                             : 3,03 Гбайт
Продолжительность                        : 1 ч. 9 м.
Режим общего битрейта                    : Переменный
Общий поток                              : 6254 Кбит/сек
Программа кодирования                    : Lavf51.12.1
Библиотека кодирования                   : Lavf51.12.1
Видео
Идентификатор                            : 1
Формат                                   : AVC
Формат/Информация                        : Advanced Video Codec
Профиль формата                          : Baseline@L3.1
Параметр CABAC формата                   : Нет
Параметр ReFrames формата                : 1 кадр
Параметр GOP формата                     : M=1, N=12
Идентификатор кодека                     : V_MPEG4/ISO/AVC
Продолжительность                        : 1 ч. 9 м.
Вид битрейта                             : Переменный
Битрейт                                  : 5746 Кбит/сек
Максимальный битрейт                     : 4500 Кбит/сек
Ширина                                   : 1280 пикселей
Высота                                   : 720 пикселей
Соотношение сторон                       : 16:9
Режим частоты кадров                     : Постоянный
Частота кадров                           : 23,401 кадра/сек
Частота кадров в оригинале               : 24,000 кадра/сек
Цветовое пространство                    : YUV
Субдискретизация насыщенности            : 4:2:0
Битовая глубина                          : 8 бит
Тип развёртки                            : Прогрессивная
Бит/(Пиксели*Кадры)                      : 0.266
Размер потока                            : 2,78 Гбайт (92%)
Default                                  : Да
Forced                                   : Нет
Аудио
Идентификатор                            : 2
Формат                                   : AC-3
Формат/Информация                        : Audio Coding 3
Расширение режима                        : CM (complete main)
Параметр Endianness формата              : Big
Идентификатор кодека                     : A_AC3
Продолжительность                        : 1 ч. 9 м.
Вид битрейта                             : Постоянный
Битрейт                                  : 384 Кбит/сек
Каналы                                   : 6 каналов
Расположение каналов                     : Front: L C R, Side: L R, LFE
Частота                                  : 48,0 КГц
Битовая глубина                          : 16 бит
Метод сжатия                             : С потерями
Размер потока                            : 190 Мбайт (6%)
Default                                  : Да
Forced                                   : Нет
-

Скриншоты

--Не забываем говорить
[Профиль] [ЛС]
Показать сообщения:    

Текущее время: Сегодня 01:10

Часовой пояс: GMT



Вы не можете начинать темы
Вы не можете отвечать на сообщения
Вы не можете редактировать свои сообщения
Вы не можете удалять свои сообщения
Вы не можете голосовать в опросах
Вы не можете прикреплять файлы к сообщениям
Вы не можете скачивать файлы