Michael Jackson - Smooth Criminal (2009) HDTV [1080p]

 
Автор Сообщение

sergej644 ®

Пол:

Стаж: 4 года 11 месяцев

Сообщений: 6040

Откуда: Soviet Union



Награды: Нет

Торрент-статистика

Создавать темы 20-Окт-2014 15:13

[Цитировать]

- Michael Jackson - Smooth Criminal (2009) HDTV [1080p]- Исполнитель: Michael Jackson
Год выпуска: 2009
Жанр: Pop
Продолжительность: 00:09:58
Описание:
Один из самых успешных исполнителей в истории поп-музыки, известен как «Король Поп-музыки», обладатель 15 премий Грэмми и сотен других премий родился 29 августа 1958 года. Жизнь американского артиста, актера, автора и исполнителя песен, танцора, композитора, хореографа, филантропа оборвалась 25 июня 2009 г. когда ему было всего 50 лет.. Майкл Джексон родился в семье Джозефа и Кэтрин в городе Гэри (штат Индиана). Он был восьмым из десяти детей. Майкл начал работать очень рано. Группа The Jackson 5, где он пел вместе со своими братьями, была очень популярна в 60-70 года. Говорить о его наградах, значении его музыки для всего мира, о его необыкновенно добром сердце можно бесконечно долго. При жизни певца было выпущено 10 студийных альбомов, 2 уже после его смерти (Michael (2010), Xscape (2014). Джексон удостоен 395 различных премий и наград, дважды введён в Зал славы рок-н-ролла (в составе коллектива Jackson 5 и как сольного артиста), а также в Книгу рекордов Гиннесса, как «Самый успешный артист всех времён».
Качество видео: HDTV [1080p]
Видеокодек: MPEG-TS AVC/H.264
Битрейт видео: ~24,6 Мбит/с
Размер кадра: 1920x1080 (16:9), 29,970 кадров/с
Аудиокодек: AC3, 2 ch, stereo
Битрейт аудио: 640 Кбит/с

MediaInfo:

Общее
Полное имя : Michael Jackson - Smooth Criminal.ts
Формат : MPEG-TS
Размер файла : 1,85 Гбайт
Продолжительность : 9 м. 58 с.
Режим общего битрейта : Переменный
Общий поток : 26,6 Мбит/сек
Максимальный общий битрейт : 35,5 Мбит/сек
Видео
Идентификатор : 4113 (0x1011)
Идентификатор меню : 1 (0x1)
Формат : AVC
Формат/Информация : Advanced Video Codec
Профиль формата : [url=mailto:Baseline@L4.0]Baseline@L4.0[/url]
Параметр CABAC формата : Нет
Параметр ReFrames формата : 1 кадр
Параметр GOP формата : M=1, N=12
Идентификатор кодека : 27
Продолжительность : 9 м. 58 с.
Вид битрейта : Переменный
Битрейт : 24,6 Мбит/сек
Максимальный битрейт : 40,0 Мбит/сек
Ширина : 1920 пикселей
Высота : 1080 пикселей
Соотношение сторон : 16:9
Частота кадров : 29,970 кадров/сек
Цветовое пространство : YUV
Субдискретизация насыщенности : 4:2:0
Битовая глубина : 8 бит
Тип развёртки : Прогрессивная
Бит/(Пиксели*Кадры) : 0.396
Размер потока : 1,71 Гбайт (93%)
Аудио
Идентификатор : 4352 (0x1100)
Идентификатор меню : 1 (0x1)
Формат : AC-3
Формат/Информация : Audio Coding 3
Расширение режима : CM (complete main)
Параметр Endianness формата : Big
Идентификатор кодека : 129
Продолжительность : 9 м. 58 с.
Вид битрейта : Постоянный
Битрейт : 640 Кбит/сек
Каналы : 6 каналов
Расположение каналов : Front: L C R, Side: L R, LFE
Частота : 48,0 КГц
Битовая глубина : 16 бит
Метод сжатия : С потерями
Задержка видео : 15 мс.
Размер потока : 45,7 Мбайт (2%)
Скриншоты:
[Профиль] [ЛС]

Создавать темы 13-Авг-2015 12:08 (спустя 9 месяцев 23 дня)

Топик был перенесен из форума Видеоклипы в форум Зарубежные клипы
sergej644
 
Показать сообщения:    

Текущее время: Сегодня 20:42

Часовой пояс: GMT



Вы не можете начинать темы
Вы не можете отвечать на сообщения
Вы не можете редактировать свои сообщения
Вы не можете удалять свои сообщения
Вы не можете голосовать в опросах
Вы не можете прикреплять файлы к сообщениям
Вы не можете скачивать файлы