(Pop) Michael Jackson - King of Pop (Deluxe UK Edition) (3CD) - 2008 [FLAC, tracks+.cue, lossless]

 
Автор Сообщение

sergej644 ®

Пол:

Стаж: 4 года 11 месяцев

Сообщений: 6042

Откуда: Soviet Union



Награды: Нет

Торрент-статистика

Создавать темы 08-Июл-2015 15:58

[Цитировать]

-Michael Jackson / King of Pop (Deluxe UK Edition) (3CD)-- Год издания: 2008
Страна: USA
Жанр: Pop
Продолжительность: 03:53:09-Лейбл издания: Epic and Sony Music Intertainment
Тип альбома: Compilation
Страна-выпуска диска: EU
Номер по каталогу: 88697356532
Формат: FLAC
Битрейт аудио: lossless
Тип рипа: tracks+.cue
Наличие сканов в содержимом раздачи: да
-

Трэклист

Disc 1 | 01:17:00

01.Billie Jean (04:54)
02.Bad (04:08)
03.Smooth Criminal (04:18)
04.Thriller (05:13)
05.Black Or White (04:16)
06.Beat It (04:17)
07.Wanna Be Startin' Somethin' (04:21)
08.Don't Stop 'Til You Get Enough (04:00)
09.The Way You Make Me Feel (04:59)
10.Rock With You (03:24)
11.You Are Not Alone (04:57)
12.Man In The Mirror (05:19)
13.Remember The Time (04:00)
14.Scream (with Janet Jackson) (04:40)
15.You Rock My World (05:08)
16.They Don't Care About Us (04:12)
17.Earth Song (05:02)

Disc 2 | 01:18:12

01.Dirty Diana (04:41)
02.Say Say Say (03:55)
03.Off The Wall (04:07)
04.Human Nature (04:07)
05.I Just Can't Stop Loving You (04:13)
06.Heal The World (04:33)
07.Will You Be There (03:40)
08.Stranger In Moscow (05:22)
09.Speechless (03:19)
10.She's Out Of My Life (03:37)
11.The Girl Is Mine (03:43)
12.Butterflies (04:41)
13.Who Is It (04:00)
14.Ghost (05:14)
15.Blood On The Dancefloor (04:13)
16.Workin' Day And Night (05:15)
17.History (04:10)
18.Give In To Me (05:30)

Disc 3 | 01:17:57

01.Can't Get Outta The Rain (Single Version) (04:07)
02.On The Line (04:54)
03.Someone Put Your Hand Out (05:26)
04.Is It Scary (Single Radio Edit) (04:14)
05.Smile (Short Version) (04:12)
06.Billie Jean (Original 12' Version) (06:24)
07.Wanna Be Startin' Somethin' (Extended 12' Mix) (06:33)
08.Bad (Dance Extended Mix Includes 'False Fade') (08:25)
09.The Way You Make Me Feel (Dance Extended Mix) (07:54)
10.Another Part Of Me (Extended Dance Mix) (06:20)
11.Smooth Criminal (Extended Dance Mix) (07:49)
12.Black Or White (The Civilles & Cole House/Club Mix) (07:35)
13.Thriller Megamix (Radio Edit) (04:10)
-

Лог создания рипа

CD 1

Exact Audio Copy V0.99 prebeta 4 from 23. January 2008
EAC extraction logfile from 31. January 2009, 12:48
Michael Jackson / King Of Pop (Deluxe UK Edition) (Disc 1)
Used drive  : _NEC    DVD_RW ND-3500AG   Adapter: 3  ID: 1
Read mode               : Secure
Utilize accurate stream : Yes
Defeat audio cache      : Yes
Make use of C2 pointers : No
Read offset correction                      : 48
Overread into Lead-In and Lead-Out          : No
Fill up missing offset samples with silence : Yes
Delete leading and trailing silent blocks   : No
Null samples used in CRC calculations       : Yes
Used interface                              : Native Win32 interface for Win NT & 2000
Gap handling                                : Appended to previous track
Used output format              : User Defined Encoder
Selected bitrate                : 128 kBit/s
Quality                         : High
Add ID3 tag                     : No
Command line compressor         : C:\Program Files\FLAC\flac.exe
Additional command line options : -V -8 -T "artist=%a" -T "title=%t" -T "album=%g" -T "date=%y" -T "tracknumber=%n" -T "genre=%m" %s
TOC of the extracted CD
     Track |   Start  |  Length  | Start sector | End sector
    ---------------------------------------------------------
        1  |  0:00.00 |  4:53.28 |         0    |    22002
        2  |  4:53.28 |  4:07.09 |     22003    |    40536
        3  |  9:00.37 |  4:17.09 |     40537    |    59820
        4  | 13:17.46 |  5:12.44 |     59821    |    83264
        5  | 18:30.15 |  4:15.54 |     83265    |   102443
        6  | 22:45.69 |  4:16.72 |    102444    |   121715
        7  | 27:02.66 |  4:20.28 |    121716    |   141243
        8  | 31:23.19 |  3:59.37 |    141244    |   159205
        9  | 35:22.56 |  4:58.16 |    159206    |   181571
       10  | 40:20.72 |  3:23.37 |    181572    |   196833
       11  | 43:44.34 |  4:56.64 |    196834    |   219097
       12  | 48:41.23 |  5:18.25 |    219098    |   242972
       13  | 53:59.48 |  3:59.65 |    242973    |   260962
       14  | 57:59.38 |  4:39.51 |    260963    |   281938
       15  | 62:39.14 |  5:07.72 |    281939    |   305035
       16  | 67:47.11 |  4:11.15 |    305036    |   323875
       17  | 71:58.26 |  5:01.46 |    323876    |   346496
Track  1
     Filename C:\Documents and Settings\Robert\My Documents\9. Seed\Flac\Michael Jackson - King of Pop (Deluxe UK Edition) (Disc 1)\01 - Billie Jean.wav
     Pre-gap length  0:00:02.00
     Peak level 100.0 %
     Track quality 100.0 %
     Test CRC C1687366
     Copy CRC C1687366
     Copy OK
Track  2
     Filename C:\Documents and Settings\Robert\My Documents\9. Seed\Flac\Michael Jackson - King of Pop (Deluxe UK Edition) (Disc 1)\02 - Bad.wav
     Peak level 100.0 %
     Track quality 100.0 %
     Test CRC 4B3B1CF7
     Copy CRC 4B3B1CF7
     Copy OK
Track  3
     Filename C:\Documents and Settings\Robert\My Documents\9. Seed\Flac\Michael Jackson - King of Pop (Deluxe UK Edition) (Disc 1)\03 - Smooth Criminal.wav
     Peak level 100.0 %
     Track quality 100.0 %
     Test CRC D558E1AB
     Copy CRC D558E1AB
     Copy OK
Track  4
     Filename C:\Documents and Settings\Robert\My Documents\9. Seed\Flac\Michael Jackson - King of Pop (Deluxe UK Edition) (Disc 1)\04 - Thriller.wav
     Peak level 100.0 %
     Track quality 100.0 %
     Test CRC 47C294EB
     Copy CRC 47C294EB
     Copy OK
Track  5
     Filename C:\Documents and Settings\Robert\My Documents\9. Seed\Flac\Michael Jackson - King of Pop (Deluxe UK Edition) (Disc 1)\05 - Black Or White.wav
     Peak level 100.0 %
     Track quality 100.0 %
     Test CRC 5CFF3427
     Copy CRC 5CFF3427
     Copy OK
Track  6
     Filename C:\Documents and Settings\Robert\My Documents\9. Seed\Flac\Michael Jackson - King of Pop (Deluxe UK Edition) (Disc 1)\06 - Beat It.wav
     Peak level 100.0 %
     Track quality 100.0 %
     Test CRC 5FA54626
     Copy CRC 5FA54626
     Copy OK
Track  7
     Filename C:\Documents and Settings\Robert\My Documents\9. Seed\Flac\Michael Jackson - King of Pop (Deluxe UK Edition) (Disc 1)\07 - Wanna Be Startin' Somethin'.wav
     Peak level 100.0 %
     Track quality 100.0 %
     Test CRC 9C6E50F3
     Copy CRC 9C6E50F3
     Copy OK
Track  8
     Filename C:\Documents and Settings\Robert\My Documents\9. Seed\Flac\Michael Jackson - King of Pop (Deluxe UK Edition) (Disc 1)\08 - Don't Stop 'Til You Get Enough.wav
     Peak level 100.0 %
     Track quality 100.0 %
     Test CRC 33FF349B
     Copy CRC 33FF349B
     Copy OK
Track  9
     Filename C:\Documents and Settings\Robert\My Documents\9. Seed\Flac\Michael Jackson - King of Pop (Deluxe UK Edition) (Disc 1)\09 - The Way You Make Me Feel.wav
     Peak level 100.0 %
     Track quality 99.9 %
     Test CRC 2D351048
     Copy CRC 2D351048
     Copy OK
Track 10
     Filename C:\Documents and Settings\Robert\My Documents\9. Seed\Flac\Michael Jackson - King of Pop (Deluxe UK Edition) (Disc 1)\10 - Rock With You.wav
     Peak level 100.0 %
     Track quality 100.0 %
     Test CRC AD2A3CC3
     Copy CRC AD2A3CC3
     Copy OK
Track 11
     Filename C:\Documents and Settings\Robert\My Documents\9. Seed\Flac\Michael Jackson - King of Pop (Deluxe UK Edition) (Disc 1)\11 - You Are Not Alone.wav
     Peak level 100.0 %
     Track quality 99.9 %
     Test CRC C66FF5E3
     Copy CRC C66FF5E3
     Copy OK
Track 12
     Filename C:\Documents and Settings\Robert\My Documents\9. Seed\Flac\Michael Jackson - King of Pop (Deluxe UK Edition) (Disc 1)\12 - Man In The Mirror.wav
     Peak level 100.0 %
     Track quality 100.0 %
     Test CRC B327C742
     Copy CRC B327C742
     Copy OK
Track 13
     Filename C:\Documents and Settings\Robert\My Documents\9. Seed\Flac\Michael Jackson - King of Pop (Deluxe UK Edition) (Disc 1)\13 - Remember The Time.wav
     Peak level 100.0 %
     Track quality 100.0 %
     Test CRC DC507447
     Copy CRC DC507447
     Copy OK
Track 14
     Filename C:\Documents and Settings\Robert\My Documents\9. Seed\Flac\Michael Jackson - King of Pop (Deluxe UK Edition) (Disc 1)\14 - Scream (with Janet Jackson).wav
     Peak level 100.0 %
     Track quality 100.0 %
     Test CRC E150D0E9
     Copy CRC E150D0E9
     Copy OK
Track 15
     Filename C:\Documents and Settings\Robert\My Documents\9. Seed\Flac\Michael Jackson - King of Pop (Deluxe UK Edition) (Disc 1)\15 - You Rock My World.wav
     Peak level 100.0 %
     Track quality 100.0 %
     Test CRC E69B9825
     Copy CRC E69B9825
     Copy OK
Track 16
     Filename C:\Documents and Settings\Robert\My Documents\9. Seed\Flac\Michael Jackson - King of Pop (Deluxe UK Edition) (Disc 1)\16 - They Don't Care About Us.wav
     Peak level 100.0 %
     Track quality 100.0 %
     Test CRC 06694079
     Copy CRC 06694079
     Copy OK
Track 17
     Filename C:\Documents and Settings\Robert\My Documents\9. Seed\Flac\Michael Jackson - King of Pop (Deluxe UK Edition) (Disc 1)\17 - Earth Song.wav
     Peak level 100.0 %
     Track quality 99.9 %
     Test CRC 108F6AB0
     Copy CRC 108F6AB0
     Copy OK
No errors occurred
End of status report

CD 2

Exact Audio Copy V0.99 prebeta 4 from 23. January 2008
EAC extraction logfile from 31. January 2009, 14:19
Michael Jackson / King Of Pop (Deluxe UK Edition) (Disc 2)
Used drive  : _NEC    DVD_RW ND-3500AG   Adapter: 3  ID: 1
Read mode               : Secure
Utilize accurate stream : Yes
Defeat audio cache      : Yes
Make use of C2 pointers : No
Read offset correction                      : 48
Overread into Lead-In and Lead-Out          : No
Fill up missing offset samples with silence : Yes
Delete leading and trailing silent blocks   : No
Null samples used in CRC calculations       : Yes
Used interface                              : Native Win32 interface for Win NT & 2000
Gap handling                                : Appended to previous track
Used output format              : User Defined Encoder
Selected bitrate                : 128 kBit/s
Quality                         : High
Add ID3 tag                     : No
Command line compressor         : C:\Program Files\FLAC\flac.exe
Additional command line options : -V -8 -T "artist=%a" -T "title=%t" -T "album=%g" -T "date=%y" -T "tracknumber=%n" -T "genre=%m" %s
TOC of the extracted CD
     Track |   Start  |  Length  | Start sector | End sector
    ---------------------------------------------------------
        1  |  0:00.00 |  4:40.71 |         0    |    21070
        2  |  4:40.71 |  3:54.61 |     21071    |    38681
        3  |  8:35.57 |  4:06.21 |     38682    |    57152
        4  | 12:42.03 |  4:06.12 |     57153    |    75614
        5  | 16:48.15 |  4:12.02 |     75615    |    94516
        6  | 21:00.17 |  4:32.32 |     94517    |   114948
        7  | 25:32.49 |  3:39.12 |    114949    |   131385
        8  | 29:11.61 |  5:22.00 |    131386    |   155535
        9  | 34:33.61 |  3:18.45 |    155536    |   170430
       10  | 37:52.31 |  3:36.37 |    170431    |   186667
       11  | 41:28.68 |  3:42.35 |    186668    |   203352
       12  | 45:11.28 |  4:40.22 |    203353    |   224374
       13  | 49:51.50 |  3:59.60 |    224375    |   242359
       14  | 53:51.35 |  5:13.37 |    242360    |   265871
       15  | 59:04.72 |  4:12.70 |    265872    |   284841
       16  | 63:17.67 |  5:14.09 |    284842    |   308400
       17  | 68:32.01 |  4:09.70 |    308401    |   327145
       18  | 72:41.71 |  5:29.22 |    327146    |   351842
Track  1
     Filename C:\Documents and Settings\Robert\My Documents\9. Seed\Flac\Michael Jackson - King of Pop (Deluxe UK Edition) (Disc 2)\01 - Dirty Diana.wav
     Pre-gap length  0:00:02.00
     Peak level 100.0 %
     Track quality 100.0 %
     Test CRC 0DA161DB
     Copy CRC 0DA161DB
     Copy OK
Track  2
     Filename C:\Documents and Settings\Robert\My Documents\9. Seed\Flac\Michael Jackson - King of Pop (Deluxe UK Edition) (Disc 2)\02 - Say Say Say.wav
     Peak level 100.0 %
     Track quality 100.0 %
     Test CRC B9DBA871
     Copy CRC B9DBA871
     Copy OK
Track  3
     Filename C:\Documents and Settings\Robert\My Documents\9. Seed\Flac\Michael Jackson - King of Pop (Deluxe UK Edition) (Disc 2)\03 - Off The Wall.wav
     Peak level 100.0 %
     Track quality 100.0 %
     Test CRC CC005DA6
     Copy CRC CC005DA6
     Copy OK
Track  4
     Filename C:\Documents and Settings\Robert\My Documents\9. Seed\Flac\Michael Jackson - King of Pop (Deluxe UK Edition) (Disc 2)\04 - Human Nature.wav
     Peak level 100.0 %
     Track quality 100.0 %
     Test CRC 8464085D
     Copy CRC 8464085D
     Copy OK
Track  5
     Filename C:\Documents and Settings\Robert\My Documents\9. Seed\Flac\Michael Jackson - King of Pop (Deluxe UK Edition) (Disc 2)\05 - I Just Can't Stop Loving You.wav
     Peak level 100.0 %
     Track quality 99.9 %
     Test CRC B728328A
     Copy CRC B728328A
     Copy OK
Track  6
     Filename C:\Documents and Settings\Robert\My Documents\9. Seed\Flac\Michael Jackson - King of Pop (Deluxe UK Edition) (Disc 2)\06 - Heal The World.wav
     Peak level 100.0 %
     Track quality 100.0 %
     Test CRC 10D07637
     Copy CRC 10D07637
     Copy OK
Track  7
     Filename C:\Documents and Settings\Robert\My Documents\9. Seed\Flac\Michael Jackson - King of Pop (Deluxe UK Edition) (Disc 2)\07 - Will You Be There.wav
     Peak level 100.0 %
     Track quality 99.9 %
     Test CRC 25B288CC
     Copy CRC 25B288CC
     Copy OK
Track  8
     Filename C:\Documents and Settings\Robert\My Documents\9. Seed\Flac\Michael Jackson - King of Pop (Deluxe UK Edition) (Disc 2)\08 - Stranger In Moscow.wav
     Peak level 100.0 %
     Track quality 100.0 %
     Test CRC DBE4FF15
     Copy CRC DBE4FF15
     Copy OK
Track  9
     Filename C:\Documents and Settings\Robert\My Documents\9. Seed\Flac\Michael Jackson - King of Pop (Deluxe UK Edition) (Disc 2)\09 - Speechless.wav
     Peak level 100.0 %
     Track quality 100.0 %
     Test CRC C84DAD04
     Copy CRC C84DAD04
     Copy OK
Track 10
     Filename C:\Documents and Settings\Robert\My Documents\9. Seed\Flac\Michael Jackson - King of Pop (Deluxe UK Edition) (Disc 2)\10 - She's Out Of My Life.wav
     Peak level 100.0 %
     Track quality 99.9 %
     Test CRC 61E4E706
     Copy CRC 61E4E706
     Copy OK
Track 11
     Filename C:\Documents and Settings\Robert\My Documents\9. Seed\Flac\Michael Jackson - King of Pop (Deluxe UK Edition) (Disc 2)\11 - The Girl Is Mine.wav
     Peak level 100.0 %
     Track quality 99.9 %
     Test CRC AB3BE1D8
     Copy CRC AB3BE1D8
     Copy OK
Track 12
     Filename C:\Documents and Settings\Robert\My Documents\9. Seed\Flac\Michael Jackson - King of Pop (Deluxe UK Edition) (Disc 2)\12 - Butterflies.wav
     Peak level 100.0 %
     Track quality 100.0 %
     Test CRC F48C4C7F
     Copy CRC F48C4C7F
     Copy OK
Track 13
     Filename C:\Documents and Settings\Robert\My Documents\9. Seed\Flac\Michael Jackson - King of Pop (Deluxe UK Edition) (Disc 2)\13 - Who Is It.wav
     Peak level 100.0 %
     Track quality 100.0 %
     Test CRC 358FE423
     Copy CRC 358FE423
     Copy OK
Track 14
     Filename C:\Documents and Settings\Robert\My Documents\9. Seed\Flac\Michael Jackson - King of Pop (Deluxe UK Edition) (Disc 2)\14 - Ghost.wav
     Peak level 100.0 %
     Track quality 99.9 %
     Test CRC AF0F419B
     Copy CRC AF0F419B
     Copy OK
Track 15
     Filename C:\Documents and Settings\Robert\My Documents\9. Seed\Flac\Michael Jackson - King of Pop (Deluxe UK Edition) (Disc 2)\15 - Blood On The Dancefloor.wav
     Peak level 100.0 %
     Track quality 100.0 %
     Test CRC E2FFAE2F
     Copy CRC E2FFAE2F
     Copy OK
Track 16
     Filename C:\Documents and Settings\Robert\My Documents\9. Seed\Flac\Michael Jackson - King of Pop (Deluxe UK Edition) (Disc 2)\16 - Workin' Day And Night.wav
     Peak level 100.0 %
     Track quality 99.9 %
     Test CRC FDBB4D26
     Copy CRC FDBB4D26
     Copy OK
Track 17
     Filename C:\Documents and Settings\Robert\My Documents\9. Seed\Flac\Michael Jackson - King of Pop (Deluxe UK Edition) (Disc 2)\17 - History.wav
     Peak level 100.0 %
     Track quality 100.0 %
     Test CRC 2266D45E
     Copy CRC 2266D45E
     Copy OK
Track 18
     Filename C:\Documents and Settings\Robert\My Documents\9. Seed\Flac\Michael Jackson - King of Pop (Deluxe UK Edition) (Disc 2)\18 - Give In To Me.wav
     Peak level 100.0 %
     Track quality 100.0 %
     Test CRC 3ED9750B
     Copy CRC 3ED9750B
     Copy OK
No errors occurred
End of status report

CD 3

Exact Audio Copy V0.99 prebeta 4 from 23. January 2008
EAC extraction logfile from 31. January 2009, 15:38
Michael Jackson / King of Pop (Deluxe UK Edition) (Disc 3)
Used drive  : _NEC    DVD_RW ND-3500AG   Adapter: 3  ID: 1
Read mode               : Secure
Utilize accurate stream : Yes
Defeat audio cache      : Yes
Make use of C2 pointers : No
Read offset correction                      : 48
Overread into Lead-In and Lead-Out          : No
Fill up missing offset samples with silence : Yes
Delete leading and trailing silent blocks   : No
Null samples used in CRC calculations       : Yes
Used interface                              : Native Win32 interface for Win NT & 2000
Gap handling                                : Appended to previous track
Used output format              : User Defined Encoder
Selected bitrate                : 128 kBit/s
Quality                         : High
Add ID3 tag                     : No
Command line compressor         : C:\Program Files\FLAC\flac.exe
Additional command line options : -V -8 -T "artist=%a" -T "title=%t" -T "album=%g" -T "date=%y" -T "tracknumber=%n" -T "genre=%m" %s
TOC of the extracted CD
     Track |   Start  |  Length  | Start sector | End sector
    ---------------------------------------------------------
        1  |  0:00.00 |  4:06.31 |         0    |    18480
        2  |  4:06.31 |  4:53.61 |     18481    |    40516
        3  |  9:00.17 |  5:25.51 |     40517    |    64942
        4  | 14:25.68 |  4:13.28 |     64943    |    83945
        5  | 18:39.21 |  4:11.24 |     83946    |   102794
        6  | 22:50.45 |  6:23.57 |    102795    |   131576
        7  | 29:14.27 |  6:32.37 |    131577    |   161013
        8  | 35:46.64 |  8:24.63 |    161014    |   198876
        9  | 44:11.52 |  7:53.48 |    198877    |   234399
       10  | 52:05.25 |  6:19.26 |    234400    |   262850
       11  | 58:24.51 |  7:48.17 |    262851    |   297967
       12  | 66:12.68 |  7:34.66 |    297968    |   332083
       13  | 73:47.59 |  4:09.16 |    332084    |   350774
Track  1
     Filename C:\Documents and Settings\Robert\My Documents\9. Seed\Flac\Michael Jackson - King of Pop (Deluxe UK Edition) (Disc 3)\01 - Can't Get Outta The Rain (Single Version).wav
     Pre-gap length  0:00:02.00
     Peak level 99.8 %
     Track quality 100.0 %
     Test CRC 6E2C48A0
     Copy CRC 6E2C48A0
     Copy OK
Track  2
     Filename C:\Documents and Settings\Robert\My Documents\9. Seed\Flac\Michael Jackson - King of Pop (Deluxe UK Edition) (Disc 3)\02 - On The Line.wav
     Pre-gap length  0:00:01.10
     Peak level 93.8 %
     Track quality 100.0 %
     Test CRC 03C3E596
     Copy CRC 03C3E596
     Copy OK
Track  3
     Filename C:\Documents and Settings\Robert\My Documents\9. Seed\Flac\Michael Jackson - King of Pop (Deluxe UK Edition) (Disc 3)\03 - Someone Put Your Hand Out.wav
     Pre-gap length  0:00:01.10
     Peak level 93.7 %
     Track quality 100.0 %
     Test CRC F3F4CD6D
     Copy CRC F3F4CD6D
     Copy OK
Track  4
     Filename C:\Documents and Settings\Robert\My Documents\9. Seed\Flac\Michael Jackson - King of Pop (Deluxe UK Edition) (Disc 3)\04 - Is It Scary (Single Radio Edit).wav
     Pre-gap length  0:00:01.10
     Peak level 95.0 %
     Track quality 99.9 %
     Test CRC 00FAC158
     Copy CRC 00FAC158
     Copy OK
Track  5
     Filename C:\Documents and Settings\Robert\My Documents\9. Seed\Flac\Michael Jackson - King of Pop (Deluxe UK Edition) (Disc 3)\05 - Smile (Short Version).wav
     Pre-gap length  0:00:01.12
     Peak level 88.2 %
     Track quality 100.0 %
     Test CRC 193E7255
     Copy CRC 193E7255
     Copy OK
Track  6
     Filename C:\Documents and Settings\Robert\My Documents\9. Seed\Flac\Michael Jackson - King of Pop (Deluxe UK Edition) (Disc 3)\06 - Billie Jean (Original 12' Version).wav
     Pre-gap length  0:00:01.12
     Peak level 99.8 %
     Track quality 100.0 %
     Test CRC BF4CB460
     Copy CRC BF4CB460
     Copy OK
Track  7
     Filename C:\Documents and Settings\Robert\My Documents\9. Seed\Flac\Michael Jackson - King of Pop (Deluxe UK Edition) (Disc 3)\07 - Wanna Be Startin' Somethin' (Extended 12' Mix).wav
     Pre-gap length  0:00:01.12
     Peak level 99.8 %
     Track quality 99.9 %
     Test CRC EE1CABF3
     Copy CRC EE1CABF3
     Copy OK
Track  8
     Filename C:\Documents and Settings\Robert\My Documents\9. Seed\Flac\Michael Jackson - King of Pop (Deluxe UK Edition) (Disc 3)\08 - Bad (Dance Extended Mix Includes 'False Fade').wav
     Pre-gap length  0:00:01.10
     Peak level 94.3 %
     Track quality 100.0 %
     Test CRC 1C08BD2E
     Copy CRC 1C08BD2E
     Copy OK
Track  9
     Filename C:\Documents and Settings\Robert\My Documents\9. Seed\Flac\Michael Jackson - King of Pop (Deluxe UK Edition) (Disc 3)\09 - The Way You Make Me Feel (Dance Extended Mix).wav
     Pre-gap length  0:00:01.10
     Peak level 95.1 %
     Track quality 99.9 %
     Test CRC CC67B8E3
     Copy CRC CC67B8E3
     Copy OK
Track 10
     Filename C:\Documents and Settings\Robert\My Documents\9. Seed\Flac\Michael Jackson - King of Pop (Deluxe UK Edition) (Disc 3)\10 - Another Part Of Me (Extended Dance Mix).wav
     Pre-gap length  0:00:01.10
     Peak level 99.8 %
     Track quality 100.0 %
     Test CRC 474B4453
     Copy CRC 474B4453
     Copy OK
Track 11
     Filename C:\Documents and Settings\Robert\My Documents\9. Seed\Flac\Michael Jackson - King of Pop (Deluxe UK Edition) (Disc 3)\11 - Smooth Criminal (Extended Dance Mix).wav
     Pre-gap length  0:00:01.10
     Peak level 99.8 %
     Track quality 100.0 %
     Test CRC EA4A3EEC
     Copy CRC EA4A3EEC
     Copy OK
Track 12
     Filename C:\Documents and Settings\Robert\My Documents\9. Seed\Flac\Michael Jackson - King of Pop (Deluxe UK Edition) (Disc 3)\12 - Black Or White (The Civilles & Cole House,Club Mix).wav
     Pre-gap length  0:00:01.10
     Peak level 99.8 %
     Track quality 100.0 %
     Test CRC AA560500
     Copy CRC AA560500
     Copy OK
Track 13
     Filename C:\Documents and Settings\Robert\My Documents\9. Seed\Flac\Michael Jackson - King of Pop (Deluxe UK Edition) (Disc 3)\13 - Thriller Megamix (Radio Edit).wav
     Pre-gap length  0:00:01.12
     Peak level 99.8 %
     Track quality 100.0 %
     Test CRC 2A7E5FB0
     Copy CRC 2A7E5FB0
     Copy OK
No errors occurred
End of status report

Индексная карта (non-compilant .cue)

CD 1

REM GENRE Pop
REM DATE 2008
REM DISCID E9120B11
REM COMMENT "ExactAudioCopy v0.99pb4"
PERFORMER "Michael Jackson"
TITLE "King Of Pop (Deluxe UK Edition) (Disc 1)"
FILE "Range.wav" WAVE
  TRACK 01 AUDIO
    TITLE "Billie Jean"
    PERFORMER "Michael Jackson"
    ISRC USSM19902991
    FLAGS DCP
    INDEX 01 00:00:00
  TRACK 02 AUDIO
    TITLE "Bad"
    PERFORMER "Michael Jackson"
    ISRC USSM19909065
    FLAGS DCP
    INDEX 01 04:53:28
  TRACK 03 AUDIO
    TITLE "Smooth Criminal"
    PERFORMER "Michael Jackson"
    ISRC USSM19909073
    FLAGS DCP
    INDEX 01 09:00:37
  TRACK 04 AUDIO
    TITLE "Thriller"
    PERFORMER "Michael Jackson"
    ISRC USSM10501511
    FLAGS DCP
    INDEX 01 13:17:46
  TRACK 05 AUDIO
    TITLE "Black Or White"
    PERFORMER "Michael Jackson"
    ISRC USSM19000733
    FLAGS DCP
    INDEX 01 18:30:15
  TRACK 06 AUDIO
    TITLE "Beat It"
    PERFORMER "Michael Jackson"
    ISRC USSM19902990
    FLAGS DCP
    INDEX 01 22:45:69
  TRACK 07 AUDIO
    TITLE "Wanna Be Startin' Somethin'"
    PERFORMER "Michael Jackson"
    ISRC USSM10501508
    FLAGS DCP
    INDEX 01 27:02:66
  TRACK 08 AUDIO
    TITLE "Don't Stop 'Til You Get Enough"
    PERFORMER "Michael Jackson"
    ISRC USSM10506998
    FLAGS DCP
    INDEX 01 31:23:19
  TRACK 09 AUDIO
    TITLE "The Way You Make Me Feel"
    PERFORMER "Michael Jackson"
    ISRC USSM19909066
    FLAGS DCP
    INDEX 01 35:22:56
  TRACK 10 AUDIO
    TITLE "Rock With You"
    PERFORMER "Michael Jackson"
    ISRC USSM17900817
    FLAGS DCP
    INDEX 01 40:20:72
  TRACK 11 AUDIO
    TITLE "You Are Not Alone"
    PERFORMER "Michael Jackson"
    ISRC USSM10503693
    FLAGS DCP
    INDEX 01 43:44:34
  TRACK 12 AUDIO
    TITLE "Man In The Mirror"
    PERFORMER "Michael Jackson"
    ISRC USSM19909070
    FLAGS DCP
    INDEX 01 48:41:23
  TRACK 13 AUDIO
    TITLE "Remember The Time"
    PERFORMER "Michael Jackson"
    ISRC USSM10020715
    FLAGS DCP
    INDEX 01 53:59:48
  TRACK 14 AUDIO
    TITLE "Scream (with Janet Jackson)"
    PERFORMER "Michael Jackson"
    ISRC USSM19500021
    FLAGS DCP
    INDEX 01 57:59:38
  TRACK 15 AUDIO
    TITLE "You Rock My World"
    PERFORMER "Michael Jackson"
    ISRC USSM10109858
    FLAGS DCP
    INDEX 01 62:39:14
  TRACK 16 AUDIO
    TITLE "They Don't Care About Us"
    PERFORMER "Michael Jackson"
    ISRC USSM10507361
    FLAGS DCP
    INDEX 01 67:47:11
  TRACK 17 AUDIO
    TITLE "Earth Song"
    PERFORMER "Michael Jackson"
    ISRC USSM19501640
    FLAGS DCP
    INDEX 01 71:58:26

CD 2

REM GENRE Pop
REM DATE 2008
REM DISCID F9125312
REM COMMENT "ExactAudioCopy v0.99pb4"
PERFORMER "Michael Jackson"
TITLE "King Of Pop (Deluxe UK Edition) (Disc 2)"
FILE "Range.wav" WAVE
  TRACK 01 AUDIO
    TITLE "Dirty Diana"
    PERFORMER "Michael Jackson"
    ISRC USSM19909072
    FLAGS DCP
    INDEX 01 00:00:00
  TRACK 02 AUDIO
    TITLE "Say Say Say"
    PERFORMER "Michael Jackson"
    ISRC USLIC0500084
    FLAGS DCP
    INDEX 01 04:40:71
  TRACK 03 AUDIO
    TITLE "Off The Wall"
    PERFORMER "Michael Jackson"
    ISRC USSM17900209
    FLAGS DCP
    INDEX 01 08:35:57
  TRACK 04 AUDIO
    TITLE "Human Nature"
    PERFORMER "Michael Jackson"
    ISRC USSM19902992
    FLAGS DCP
    INDEX 01 12:42:03
  TRACK 05 AUDIO
    TITLE "I Just Can't Stop Loving You"
    PERFORMER "Michael Jackson"
    ISRC USSM19909071
    FLAGS DCP
    INDEX 01 16:48:15
  TRACK 06 AUDIO
    TITLE "Heal The World"
    PERFORMER "Michael Jackson"
    ISRC USSM10507236
    FLAGS DCP
    INDEX 01 21:00:17
  TRACK 07 AUDIO
    TITLE "Will You Be There"
    PERFORMER "Michael Jackson"
    ISRC USSM10501515
    FLAGS DCP
    INDEX 01 25:32:49
  TRACK 08 AUDIO
    TITLE "Stranger In Moscow"
    PERFORMER "Michael Jackson"
    ISRC USSM19500008
    FLAGS DCP
    INDEX 01 29:11:61
  TRACK 09 AUDIO
    TITLE "Speechless"
    PERFORMER "Michael Jackson"
    ISRC USSM10110476
    FLAGS DCP
    INDEX 01 34:33:61
  TRACK 10 AUDIO
    TITLE "She's Out Of My Life"
    PERFORMER "Michael Jackson"
    ISRC USSM17900822
    FLAGS DCP
    INDEX 01 37:52:31
  TRACK 11 AUDIO
    TITLE "The Girl Is Mine"
    PERFORMER "Michael Jackson"
    ISRC USSM19902988
    FLAGS DCP
    INDEX 01 41:28:68
  TRACK 12 AUDIO
    TITLE "Butterflies"
    PERFORMER "Michael Jackson"
    ISRC USSM10110474
    FLAGS DCP
    INDEX 01 45:11:28
  TRACK 13 AUDIO
    TITLE "Who Is It"
    PERFORMER "Michael Jackson"
    ISRC USSM10501514
    FLAGS DCP
    INDEX 01 49:51:50
  TRACK 14 AUDIO
    TITLE "Ghost"
    PERFORMER "Michael Jackson"
    ISRC USSM19700513
    FLAGS DCP
    INDEX 01 53:51:35
  TRACK 15 AUDIO
    TITLE "Blood On The Dancefloor"
    PERFORMER "Michael Jackson"
    ISRC USSM19700290
    FLAGS DCP
    INDEX 01 59:04:72
  TRACK 16 AUDIO
    TITLE "Workin' Day And Night"
    PERFORMER "Michael Jackson"
    ISRC USSM17900818
    FLAGS DCP
    INDEX 01 63:17:67
  TRACK 17 AUDIO
    TITLE "History"
    PERFORMER "Michael Jackson"
    ISRC USSM19503596
    FLAGS DCP
    INDEX 01 68:32:01
  TRACK 18 AUDIO
    TITLE "Give In To Me"
    PERFORMER "Michael Jackson"
    ISRC USSM10024729
    FLAGS DCP
    INDEX 01 72:41:71

CD 3

REM GENRE Pop
REM DATE 2008
REM DISCID B912450D
REM COMMENT "ExactAudioCopy v0.99pb4"
PERFORMER "Michael Jackson"
TITLE "King of Pop (Deluxe UK Edition) (Disc 3)"
FILE "01 - Can't Get Outta The Rain (Single Version).wav" WAVE
  TRACK 01 AUDIO
    TITLE "Can't Get Outta The Rain (Single Version)"
    PERFORMER "Michael Jackson"
    ISRC USSM10309812
    INDEX 01 00:00:00
  TRACK 02 AUDIO
    TITLE "On The Line"
    PERFORMER "Michael Jackson"
    ISRC USSM19605476
    INDEX 00 04:05:23
FILE "02 - On The Line.wav" WAVE
    INDEX 01 00:00:00
  TRACK 03 AUDIO
    TITLE "Someone Put Your Hand Out"
    PERFORMER "Michael Jackson"
    ISRC USSM10411607
    INDEX 00 04:52:53
FILE "03 - Someone Put Your Hand Out.wav" WAVE
    INDEX 01 00:00:00
  TRACK 04 AUDIO
    TITLE "Is It Scary (Single Radio Edit)"
    PERFORMER "Michael Jackson"
    ISRC USSM10803310
    INDEX 00 05:24:43
FILE "04 - Is It Scary (Single Radio Edit).wav" WAVE
    INDEX 01 00:00:00
  TRACK 05 AUDIO
    TITLE "Smile (Short Version)"
    PERFORMER "Michael Jackson"
    ISRC USSM19503716
    INDEX 00 04:12:19
FILE "05 - Smile (Short Version).wav" WAVE
    INDEX 01 00:00:00
  TRACK 06 AUDIO
    TITLE "Billie Jean (Original 12' Version)"
    PERFORMER "Michael Jackson"
    ISRC USSM10506999
    INDEX 00 04:10:15
FILE "06 - Billie Jean (Original 12' Version).wav" WAVE
    INDEX 01 00:00:00
  TRACK 07 AUDIO
    TITLE "Wanna Be Startin' Somethin' (Extended 12' Mix)"
    PERFORMER "Michael Jackson"
    ISRC USSM10800007
    INDEX 00 06:22:48
FILE "07 - Wanna Be Startin' Somethin' (Extended 12' Mix).wav" WAVE
    INDEX 01 00:00:00
  TRACK 08 AUDIO
    TITLE "Bad (Dance Extended Mix Includes 'False Fade')"
    PERFORMER "Michael Jackson"
    ISRC USSM10313607
    INDEX 00 06:31:29
FILE "08 - Bad (Dance Extended Mix Includes 'False Fade').wav" WAVE
    INDEX 01 00:00:00
  TRACK 09 AUDIO
    TITLE "The Way You Make Me Feel (Dance Extended Mix)"
    PERFORMER "Michael Jackson"
    ISRC USSM10506922
    INDEX 00 08:23:55
FILE "09 - The Way You Make Me Feel (Dance Extended Mix).wav" WAVE
    INDEX 01 00:00:00
  TRACK 10 AUDIO
    TITLE "Another Part Of Me (Extended Dance Mix)"
    PERFORMER "Michael Jackson"
    ISRC USSM10402596
    INDEX 00 07:52:40
FILE "10 - Another Part Of Me (Extended Dance Mix).wav" WAVE
    INDEX 01 00:00:00
  TRACK 11 AUDIO
    TITLE "Smooth Criminal (Extended Dance Mix)"
    PERFORMER "Michael Jackson"
    ISRC USSM10315624
    INDEX 00 06:18:18
FILE "11 - Smooth Criminal (Extended Dance Mix).wav" WAVE
    INDEX 01 00:00:00
  TRACK 12 AUDIO
    TITLE "Black Or White (The Civilles & Cole House/Club Mix)"
    PERFORMER "Michael Jackson"
    ISRC USSM18900011
    INDEX 00 07:47:09
FILE "12 - Black Or White (The Civilles & Cole House,Club Mix).wav" WAVE
    INDEX 01 00:00:00
  TRACK 13 AUDIO
    TITLE "Thriller Megamix (Radio Edit)"
    PERFORMER "Michael Jackson"
    ISRC USSM10802832
    INDEX 00 07:33:57
FILE "13 - Thriller Megamix (Radio Edit).wav" WAVE
    INDEX 01 00:00:00

Лог Audiochecker

CD 1

AUDIOCHECKER v2.0 beta (build 457) - by Dester - opdester@freemail.hu
~~~~~~~~~~~~~~~~~~~~~~~~~~~~~~~~~~
-=== НЕ РЕДАКТИРУЙТЕ ЭТОТ ФАЙЛ! ===-
Путь: ...\Michael Jackson - King of Pop (Deluxe UK Edition) (Disc 1)
01 -=- 01 - Billie Jean.flac -=- CDDA (100%)
02 -=- 02 - Bad.flac -=- CDDA (100%)
03 -=- 03 - Smooth Criminal.flac -=- CDDA (100%)
04 -=- 04 - Thriller.flac -=- CDDA (100%)
05 -=- 05 - Black Or White.flac -=- CDDA (100%)
06 -=- 06 - Beat It.flac -=- CDDA (100%)
07 -=- 07 - Wanna Be Startin' Somethin'.flac -=- CDDA (99%)
08 -=- 08 - Don't Stop 'Til You Get Enough.flac -=- CDDA (100%)
09 -=- 09 - The Way You Make Me Feel.flac -=- CDDA (100%)
10 -=- 10 - Rock With You.flac -=- CDDA (100%)
11 -=- 11 - You Are Not Alone.flac -=- CDDA (100%)
12 -=- 12 - Man In The Mirror.flac -=- CDDA (100%)
13 -=- 13 - Remember The Time.flac -=- CDDA (99%)
14 -=- 14 - Scream (with Janet Jackson).flac -=- CDDA (100%)
15 -=- 15 - You Rock My World.flac -=- CDDA (99%)
16 -=- 16 - They Don't Care About Us.flac -=- CDDA (99%)
17 -=- 17 - Earth Song.flac -=- CDDA (100%)
Сводка 99,76% CDDA
55944836

CD 2

AUDIOCHECKER v2.0 beta (build 457) - by Dester - opdester@freemail.hu
~~~~~~~~~~~~~~~~~~~~~~~~~~~~~~~~~~
-=== НЕ РЕДАКТИРУЙТЕ ЭТОТ ФАЙЛ! ===-
Путь: ...\Michael Jackson - King of Pop (Deluxe UK Edition) (Disc 2)
01 -=- 01 - Dirty Diana.flac -=- CDDA (100%)
02 -=- 02 - Say Say Say.flac -=- CDDA (100%)
03 -=- 03 - Off The Wall.flac -=- CDDA (99%)
04 -=- 04 - Human Nature.flac -=- CDDA (100%)
05 -=- 05 - I Just Can't Stop Loving You.flac -=- CDDA (100%)
06 -=- 06 - Heal The World.flac -=- CDDA (100%)
07 -=- 07 - Will You Be There.flac -=- CDDA (100%)
08 -=- 08 - Stranger In Moscow.flac -=- CDDA (100%)
09 -=- 09 - Speechless.flac -=- CDDA (100%)
10 -=- 10 - She's Out Of My Life.flac -=- CDDA (100%)
11 -=- 11 - The Girl Is Mine.flac -=- CDDA (99%)
12 -=- 12 - Butterflies.flac -=- CDDA (100%)
13 -=- 13 - Who Is It.flac -=- CDDA (100%)
14 -=- 14 - Ghost.flac -=- CDDA (100%)
15 -=- 15 - Blood On The Dancefloor.flac -=- CDDA (100%)
16 -=- 16 - Workin' Day And Night.flac -=- CDDA (100%)
17 -=- 17 - History.flac -=- CDDA (100%)
18 -=- 18 - Give In To Me.flac -=- CDDA (100%)
Сводка 99,89% CDDA
131078036

CD 3

AUDIOCHECKER v2.0 beta (build 457) - by Dester - opdester@freemail.hu
~~~~~~~~~~~~~~~~~~~~~~~~~~~~~~~~~~
-=== НЕ РЕДАКТИРУЙТЕ ЭТОТ ФАЙЛ! ===-
Путь: ...\Michael Jackson - King of Pop (Deluxe UK Edition) (Disc 3)
01 -=- 01 - Can't Get Outta The Rain (Single Version).flac -=- CDDA (99%)
02 -=- 02 - On The Line.flac -=- CDDA (99%)
03 -=- 03 - Someone Put Your Hand Out.flac -=- CDDA (100%)
04 -=- 04 - Is It Scary (Single Radio Edit).flac -=- CDDA (100%)
05 -=- 05 - Smile (Short Version).flac -=- CDDA (100%)
06 -=- 06 - Billie Jean (Original 12' Version).flac -=- CDDA (100%)
07 -=- 07 - Wanna Be Startin' Somethin' (Extended 12' Mix).flac -=- CDDA (100%)
08 -=- 08 - Bad (Dance Extended Mix Includes 'False Fade').flac -=- CDDA (100%)
09 -=- 09 - The Way You Make Me Feel (Dance Extended Mix).flac -=- CDDA (100%)
10 -=- 10 - Another Part Of Me (Extended Dance Mix).flac -=- CDDA (100%)
11 -=- 11 - Smooth Criminal (Extended Dance Mix).flac -=- CDDA (99%)
12 -=- 12 - Black Or White (The Civilles & Cole House,Club Mix).flac -=- CDDA (100%)
13 -=- 13 - Thriller Megamix (Radio Edit).flac -=- CDDA (99%)
Сводка 99,69% CDDA
67734564
--Не забываем говорить
[Профиль] [ЛС]

Создавать темы 13-Авг-2015 10:42 (спустя 1 месяц 4 дня)

Топик был перенесен из форума Зарубежная в форум World Pop
sergej644
 
Кто просматривает тему:

Форум Тема Автор Размер
World Pop (Pop) Michael Jackson - They Don\'t Care About Us (U.K. Single) - 1996, MP3, 128 kbps bot 37 MB
Показать сообщения:    

Текущее время: Сегодня 22:05

Часовой пояс: GMT



Вы не можете начинать темы
Вы не можете отвечать на сообщения
Вы не можете редактировать свои сообщения
Вы не можете удалять свои сообщения
Вы не можете голосовать в опросах
Вы не можете прикреплять файлы к сообщениям
Вы не можете скачивать файлы