MH17: Год Молчания (2015) HDTVRip 720p

 
Автор Сообщение

sergej644 ®

Пол:

Стаж: 4 года 11 месяцев

Сообщений: 6046

Откуда: Soviet Union



Награды: Нет

Торрент-статистика

Создавать темы 18-Июл-2015 00:15

[Цитировать]

MH17: Год Молчания- Год выпуска: 2015
Страна: Россия
Студия: НТВ HD
Жанр: Документальный
Продолжительность: 0:27:01
Режиссер: Яна Ерлашова-Описание: Год прошел с момента крушения на востоке Украины самолета малайзийской авиакомпании MH17. Уже год Нидерланды возглавляют расследование трагедии, унесшей жизни 298 человек. Но никто не знает, как идет этот процесс, – он окутан тайной. Фильм «MH17: Год Молчания» расскажет, что родственники погибших думают по поводу такой скрытности. В фильме также приводятся свидетельства местных жителей, слова которых ставят под сомнение версию крушения, которая продвигается на Западе, – мол, MH17 был сбит ополченцами из ЗРК «Бук»...-Автор рипа: lrn
Автор записи: TRAY_MAX
Сэмпл: sendfile-Тип релиза: HDTVRip 720p
Контейнер: MKV
Видео: 1280x720 (16:9), 25,000 fps, H264, ~4000 kbps avg, ~0.174 bit/pixel
Аудио: 48 kHz, AC3 Dolby Digital, 2/0 (L,R) ch, ~192.00 kbps avg-

MediaInfo

General
Unique ID : 204512197906392484775997882928928030669 (0x99DB9DD91B57C27289F262A4206A7FCD)
Complete name : E:uTorrent.TempTempMH17.God.Molchaniya.2015.HDTV.720p.x264-lrn.mkv
Format : Matroska
Format version : Version 4 / Version 2
File size : 810 MiB
Duration : 27mn 1s
Overall bit rate : 4 192 Kbps
Movie name : MH17.God.Molchaniya.2015.HDTV.720p.x264-lrn
Encoded date : UTC 2010-02-22 21:41:31
Writing application : mkvmerge v5.9.0 ('On The Loose') built on Dec 9 2012 15:37:01
Writing library : libebml v1.3.0 + libmatroska v1.4.0
DURATION : 00:27:01.080000000
NUMBER_OF_FRAMES : 40527
NUMBER_OF_BYTES : 810133526
_STATISTICS_WRITING_APP : mkvmerge v7.7.0 ('Six Voices') 32bit built on Feb 28 2015 23:23:00
_STATISTICS_WRITING_DATE_UT : 2015-07-17 19:39:45
_STATISTICS_TAGS : BPS DURATION NUMBER_OF_FRAMES NUMBER_OF_BYTES
Video
ID : 1
Format : AVC
Format/Info : Advanced Video Codec
Format profile : High@L4.1
Format settings, CABAC : Yes
Format settings, ReFrames : 8 frames
Codec ID : V_MPEG4/ISO/AVC
Duration : 27mn 1s
Bit rate : 4 000 Kbps
Width : 1 280 pixels
Height : 720 pixels
Display aspect ratio : 16:9
Frame rate mode : Constant
Frame rate : 25.000 fps
Color space : YUV
Chroma subsampling : 4:2:0
Bit depth : 8 bits
Scan type : Progressive
Bits/(Pixel*Frame) : 0.174
Stream size : 757 MiB (93%)
Writing library : x264 core 146 r2538 121396c
Encoding settings : cabac=1 / ref=8 / deblock=1:-3:-3 / analyse=0x3:0x133 / me=umh / subme=9 / psy=1 / psy_rd=1.00:0.00 / mixed_ref=1 / me_range=32 / chroma_me=1 / trellis=2 / 8x8dct=1 / cqm=0 / deadzone=21,11 / fast_pskip=1 / chroma_qp_offset=-2 / threads=12 / lookahead_threads=2 / sliced_threads=0 / nr=0 / decimate=1 / interlaced=0 / bluray_compat=0 / constrained_intra=0 / bframes=8 / b_pyramid=2 / b_adapt=2 / b_bias=0 / direct=3 / weightb=1 / open_gop=0 / weightp=2 / keyint=250 / keyint_min=25 / scenecut=40 / intra_refresh=0 / rc_lookahead=50 / rc=2pass / mbtree=1 / bitrate=4000 / ratetol=1.0 / qcomp=0.60 / qpmin=0 / qpmax=69 / qpstep=4 / cplxblur=20.0 / qblur=0.5 / vbv_maxrate=62500 / vbv_bufsize=78125 / nal_hrd=none / filler=0 / ip_ratio=1.40 / aq=1:1.00
Default : Yes
Forced : No
Audio
ID : 2
Format : AC-3
Format/Info : Audio Coding 3
Mode extension : CM (complete main)
Format settings, Endianness : Big
Codec ID : A_AC3
Duration : 27mn 1s
Bit rate mode : Constant
Bit rate : 192 Kbps
Channel(s) : 2 channels
Channel positions : Front: L R
Sampling rate : 48.0 KHz
Compression mode : Lossy
Stream size : 37.1 MiB (5%)
Language : Russian
Default : Yes
Forced : No

x264 log

raw [info]: 1280x720p 1:1 @ 25/1 fps (cfr)
x264 [info]: using SAR=1/1
x264 [info]: using cpu capabilities: MMX2 SSE2Fast SSSE3 SSE4.2 AVX
x264 [info]: profile High, level 4.1
x264 [info]: frame I:299 Avg QP:12.82 size:106236
x264 [info]: frame P:11052 Avg QP:15.94 size: 39797
x264 [info]: frame B:29176 Avg QP:18.09 size: 11603
x264 [info]: consecutive B-frames: 3.8% 5.7% 7.4% 57.9% 10.1% 10.1% 2.4% 1.6% 0.9%
x264 [info]: mb I I16..4: 8.5% 74.4% 17.1%
x264 [info]: mb P I16..4: 2.9% 13.8% 1.6% P16..4: 40.6% 22.6% 11.6% 0.5% 0.1% skip: 6.4%
x264 [info]: mb B I16..4: 0.3% 1.0% 0.1% B16..8: 37.1% 10.3% 2.1% direct: 8.1% skip:41.0% L0:40.5% L1:46.4% BI:13.1%
x264 [info]: 8x8 transform intra:75.0% inter:58.5%
x264 [info]: direct mvs spatial:99.4% temporal:0.6%
x264 [info]: coded y,uvDC,uvAC intra: 74.1% 79.3% 53.4% inter: 24.6% 26.1% 3.5%
x264 [info]: i16 v,h,dc,p: 30% 17% 6% 47%
x264 [info]: i8 v,h,dc,ddl,ddr,vr,hd,vl,hu: 14% 12% 9% 8% 11% 12% 12% 11% 12%
x264 [info]: i4 v,h,dc,ddl,ddr,vr,hd,vl,hu: 15% 11% 6% 9% 13% 13% 12% 10% 12%
x264 [info]: i8c dc,h,v,p: 40% 25% 20% 15%
x264 [info]: Weighted P-Frames: Y:3.0% UV:1.4%
x264 [info]: ref P L0: 54.4% 9.6% 17.7% 5.5% 4.5% 3.1% 3.0% 1.9% 0.2% 0.0%
x264 [info]: ref B L0: 82.5% 10.7% 3.2% 1.6% 1.0% 0.7% 0.3%
x264 [info]: ref B L1: 95.8% 4.2%
x264 [info]: kb/s:3997.99
encoded 40527 frames, 12.75 fps, 3997.99 kb/s

Скриншоты

[Профиль] [ЛС]
Кто просматривает тему:

Показать сообщения:    

Текущее время: Сегодня 19:36

Часовой пояс: GMT



Вы не можете начинать темы
Вы не можете отвечать на сообщения
Вы не можете редактировать свои сообщения
Вы не можете удалять свои сообщения
Вы не можете голосовать в опросах
Вы не можете прикреплять файлы к сообщениям
Вы не можете скачивать файлы