Methusalem - Journey Into The Unknown (2006) [APE|Lossless]<Disco>

 
Автор Сообщение

sergej644 ®

Пол:

Стаж: 4 года 11 месяцев

Сообщений: 6046

Откуда: Soviet Union



Награды: Нет

Торрент-статистика

Создавать темы 24-Дек-2014 22:34

[Цитировать]

-Methusalem - Journey Into The Unknown (2006)- Год: 2006
Лейбл: ESonCD
Каталог #: 200061-2
Жанр: Disco
Продолжительность: 00:39:17
Кодек: APE
Битрейт: Lossless
Тип битрейта: image +.cue
Треклист:
01. Zombie 5:02
02. Alien 4:20
03. Robotism 6:34
04. You Are The Sun 7:11
05. The Black Hole 4:16
06. Time Machine 4:12
07. Ooh Dracula 3:29
08. Shot Down 4:09

Отчёт ЕАС&#58;

Exact Audio Copy V0.99 prebeta 5 from 4. May 2009
Отчёт EAC об извлечении, выполненном 5. сентября 2009, 0:52
Methusalem / Journey Into Unknown
Дисковод: Optiarc DVD RW AD-5200A Adapter: 0 ID: 0
Режим чтения : Достоверность
Использование точного потока : Да
Отключение кэша аудио : Да
Использование указателей C2 : Нет
Коррекция смещения при чтении : 48
Способность читать области Lead-in и Lead-out : Нет
Заполнение пропущенных сэмплов тишиной : Да
Удаление блоков с тишиной в начале и конце : Нет
При вычислениях CRC использовались нулевые сэмплы : Да
Интерфейс : Установленный внешний ASPI-интерфейс
Выходной формат : Внутренние WAV-операции
Формат сэмплов : 44.100 Гц; 16 бит; стерео
TOC извлечённого CD
Трек | Старт | Длительность | Начальный сектор | Конечный сектор
---------------------------------------------------------------------
1 | 0:00.00 | 5:02.62 | 0 | 22711
2 | 5:02.62 | 4:20.53 | 22712 | 42264
3 | 9:23.40 | 6:34.12 | 42265 | 71826
4 | 15:57.52 | 7:11.50 | 71827 | 104201
5 | 23:09.27 | 4:16.60 | 104202 | 123461
6 | 27:26.12 | 4:12.09 | 123462 | 142370
7 | 31:38.21 | 3:29.54 | 142371 | 158099
8 | 35:08.00 | 4:09.66 | 158100 | 176840
Характеристики диапазона извлечения и сообщения об ошибках
Выбранный диапазон
Имя файла E:\Methusalem - Journey Into Unknown\Methusalem - Journey Into Unknown.wav
Пиковый уровень 96.6 %
Качество диапазона 100.0 %
CRC теста 2D93E870
CRC копии 2D93E870
Копирование... OK
Ошибок не произошло
AccurateRip: сводка
Трек 1 нет в базе данных
Трек 2 нет в базе данных
Трек 3 нет в базе данных
Трек 4 нет в базе данных
Трек 5 нет в базе данных
Трек 6 нет в базе данных
Трек 7 нет в базе данных
Трек 8 нет в базе данных
Ни одного трека нет в базе AccurateRip
Конец отчёта

Отчёт auCDtect Task manager&#58;

-----------------------
DON'T MODIFY THIS FILE
-----------------------
PERFORMER: auCDtect Task Manager, ver. 1.5.1RC4 build 1.5.1.5
Copyright (c) 2008-2010 y-soft. All rights reserved
http://y-soft.org
ANALYZER: auCDtect: CD records authenticity detector, version 0.8.2
Copyright (c) 2004 Oleg Berngardt. All rights reserved.
Copyright (c) 2004 Alexander Djourik. All rights reserved.
FILE: Methusalem - Journey Into Unknown.ape
  Size: 257141328 Hash: 68B231283C8AC6695E3D008D68AE78D7 Accuracy: -m0
  Conclusion: CDDA 100%
  Signature: 4003404D61984348254F140A5DC960654E96D49E

Содержание индексной карты (.CUE&#41;&#58;

REM GENRE Disco
REM DATE 2006
REM DISCID 5F093508
REM COMMENT "ExactAudioCopy v0.99pb5"
PERFORMER "Methusalem"
TITLE "Journey Into Unknown"
FILE "Methusalem - Journey Into Unknown.ape" WAVE
  TRACK 01 AUDIO
    TITLE "Zombie"
    PERFORMER "Methusalem"
    FLAGS DCP
    INDEX 01 00:00:00
    INDEX 02 01:25:15
    INDEX 03 01:44:24
    INDEX 04 01:55:15
  TRACK 02 AUDIO
    TITLE "Alien"
    PERFORMER "Methusalem"
    FLAGS DCP
    INDEX 00 05:00:62
    INDEX 01 05:02:62
  TRACK 03 AUDIO
    TITLE "Robotism"
    PERFORMER "Methusalem"
    FLAGS DCP
    INDEX 00 09:21:40
    INDEX 01 09:23:40
  TRACK 04 AUDIO
    TITLE "You Are The Sun"
    PERFORMER "Methusalem"
    FLAGS DCP
    INDEX 00 15:55:52
    INDEX 01 15:57:52
  TRACK 05 AUDIO
    TITLE "The Black Hole"
    PERFORMER "Methusalem"
    FLAGS DCP
    INDEX 00 23:07:27
    INDEX 01 23:09:27
  TRACK 06 AUDIO
    TITLE "Time Machine"
    PERFORMER "Methusalem"
    FLAGS DCP
    INDEX 00 27:24:12
    INDEX 01 27:26:12
  TRACK 07 AUDIO
    TITLE "Ooh Dracula"
    PERFORMER "Methusalem"
    FLAGS DCP
    INDEX 00 31:36:21
    INDEX 01 31:38:21
  TRACK 08 AUDIO
    TITLE "Shot Down"
    PERFORMER "Methusalem"
    FLAGS DCP
    INDEX 00 35:06:00
    INDEX 01 35:08:00
[Профиль] [ЛС]

Создавать темы 13-Авг-2015 10:44 (спустя 7 месяцев 20 дней)

Топик был перенесен из форума Зарубежная в форум Technopop, Eurodance, Disco
sergej644
 
Кто просматривает тему:

Показать сообщения:    

Текущее время: Сегодня 06:23

Часовой пояс: GMT



Вы не можете начинать темы
Вы не можете отвечать на сообщения
Вы не можете редактировать свои сообщения
Вы не можете удалять свои сообщения
Вы не можете голосовать в опросах
Вы не можете прикреплять файлы к сообщениям
Вы не можете скачивать файлы