Metallica - Live At Rock Am Ring 2014 [2014 г., Thrash Metal, HDTV]720p

 
Автор Сообщение

sergej644 ®

Пол:

Стаж: 4 года 11 месяцев

Сообщений: 6041

Откуда: Soviet Union



Награды: Нет

Торрент-статистика

Создавать темы 13-Июн-2014 13:24

[Цитировать]

-Metallica - Live At Rock Am Ring 2014

Страна: USA
Жанр: Thrash Metal
Год выпуска: 2014
Год выпуска: Нюрбург 8 июня 2014 года
Продолжительность: 02:20:55
Перевод: не требуется
-
Выступление Американской группы Metallica на рок фестивале Rock am Ring 2014, который проходит 5-8 июня в Нюрбурге, рядом с известным автодромом Nurburgring -

треклист

01. Battery
02. Master of Puppets
03. Welcome Home (Sanitarium)
04. Ride the Lightning
. . . (Followed by Kirk's guitar solo)
05. The Unforgiven
06. Creeping Death
. . . (Announced by fan on stage.)
07. Lords of Summer
08. Sad but True
. . . (Followed by Rob's bass solo. Announced by fan on stage.)
09. Fade to Black
10. Fuel
11. One
12. For Whom the Bell Tolls
13. Whiskey in the Jar
. . . (Lena Bourne Fish cover)
14. Nothing Else Matters
. . . (preluded by Kirk guitar doodle)
15. Enter Sandman
Encore:
16. St. Anger
17. ...And Justice for All
. . . (Vote of the day. Re-started two times, without tape intro)
18. Seek & Destroy
. . . (The Frayed Ends of Sanity outro)
Качество: HDTV 720p
Контейнер: TS
Видео кодек: H.26x
Аудио кодек: AC3
Видео: MPEG4/AVC, 1280x720p 16:9, 11.7 Mbps, 50 fps, 0.255 bit/pic
Аудио: AC3, 2 channels Front: L R, 48 KHz, 448 Кbps, 16 bits
Текст: Teletext, Germany
-

MI

General
ID                                       : 1039 (0x40F)
Complete name                            : D:\Torent files\Metallica-Rock am Ring 2014.ts
Format                                   : MPEG-TS
File size                                : 12.6 GiB
Duration                                 : 2h 20mn
Overall bit rate mode                    : Variable
Overall bit rate                         : 12.8 Mbps
Video
ID                                       : 5421 (0x152D)
Menu ID                                  : 10377 (0x2889)
Format                                   : AVC
Format/Info                              : Advanced Video Codec
Format profile                           : High@L4.0
Format settings, CABAC                   : Yes
Format settings, ReFrames                : 4 frames
Codec ID                                 : 27
Duration                                 : 2h 20mn
Bit rate                                 : 11.7 Mbps
Width                                    : 1 280 pixels
Height                                   : 720 pixels
Display aspect ratio                     : 16:9
Frame rate                               : 50.000 fps
Color space                              : YUV
Chroma subsampling                       : 4:2:0
Bit depth                                : 8 bits
Scan type                                : Progressive
Bits/(Pixel*Frame)                       : 0.255
Stream size                              : 11.5 GiB (92%)
Audio
ID                                       : 5426 (0x1532)
Menu ID                                  : 10377 (0x2889)
Format                                   : AC-3
Format/Info                              : Audio Coding 3
Mode extension                           : CM (complete main)
Format settings, Endianness              : Big
Codec ID                                 : 6
Duration                                 : 2h 20mn
Bit rate mode                            : Constant
Bit rate                                 : 448 Kbps
Channel count                            : 2 channels
Channel positions                        : Front: L R
Sampling rate                            : 48.0 KHz
Bit depth                                : 16 bits
Compression mode                         : Lossy
Delay relative to video                  : 30ms
Stream size                              : 452 MiB (3%)
Language                                 : German
-

Скриншоты

[Профиль] [ЛС]
Показать сообщения:    

Текущее время: Сегодня 14:48

Часовой пояс: GMT



Вы не можете начинать темы
Вы не можете отвечать на сообщения
Вы не можете редактировать свои сообщения
Вы не можете удалять свои сообщения
Вы не можете голосовать в опросах
Вы не можете прикреплять файлы к сообщениям
Вы не можете скачивать файлы