Metallica - Glastonbury Festival [2014, Thrash Metal,HDTV] 1080i

 
Автор Сообщение

sergej644 ®

Пол:

Стаж: 4 года 11 месяцев

Сообщений: 6045

Откуда: Soviet Union



Награды: Нет

Торрент-статистика

Создавать темы 10-Июл-2014 14:16

[Цитировать]

-Metallica - Glastonbury Festival
основная информация:
Год выпуска: 2014
Страна: USA
Жанр: Thrash Metal
Продолжительность: 01:35:16-описание:
Metallica performed at the Glastonbury Festival June 28, 2014 © BBC - British Broadcasting Corporation

треклист

Сет-лист:
1. Creeping Death
2. For Whom the Bell Tolls
3. Wherever I May Roam
4. Sad but True
5. Fade to Black
6. Cyanide
7. The Unforgiven
8. The Memory Remains
9. One
10. Master of Puppets
11. Nothing Else Matters
12. Enter Sandman
Encore:
13. Whiskey in the Jar (Lena Bourne Fish cover)
14. Seek & Destroy (The Frayed Ends of Sanity outro jam)
-Качество: HDTV
Формат: TS
Видео кодек: AVC
Аудио кодек: AC3
Видео: AVC, 1920 x 1080 (16:9), 7707 kbps, 0,149 bit/pic
Аудио: AC3, 2 Ch, 192 kbps
Аудио 1: MPEG Audio, 2 Ch, 256 kbps
-

MediaInfo

Общее
Идентификатор                    : 1 (0x1)
Полное имя                       : D:\Torent files\Metallica - Live at Glastonbury 2014.ts
Формат                           : MPEG-TS
Размер файла                     : 5,71 Гбайт
Продолжительность                : 1 ч. 35 м.
Режим общего битрейта            : Переменный
Общий поток                      : 8583 Кбит/сек
Максимальный общий битрейт       : 35,5 Мбит/сек
Видео
Идентификатор                    : 4113 (0x1011)
Идентификатор меню               : 1 (0x1)
Формат                           : AVC
Формат/Информация                : Advanced Video Codec
Профиль формата                  : High@L4.0
Параметр CABAC формата           : Да
Параметр ReFrames формата        : 4 кадра
Параметр GOP формата             : M=8, N=24
Идентификатор кодека             : 27
Продолжительность                : 1 ч. 35 м.
Вид битрейта                     : Переменный
Битрейт                          : 7707 Кбит/сек
Максимальный битрейт             : 40,0 Мбит/сек
Ширина                           : 1920 пикселей
Высота                           : 1080 пикселей
Соотношение сторон               : 16:9
Частота кадров                   : 25,000 кадров/сек
Стандарт вещания                 : Component
Цветовое пространство            : YUV
Субдискретизация насыщенности    : 4:2:0
Битовая глубина                  : 8 бит
Тип развёртки                    : MBAFF
Бит/(Пиксели*Кадры)              : 0.149
Размер потока                    : 5,13 Гбайт (90%)
Основные цвета                   : BT.709-5, BT.1361, IEC 61966-2-4, SMPTE RP177
Характеристики трансфера         : BT.709-5, BT.1361
Коэффициенты матрицы             : BT.709-5, BT.1361, IEC 61966-2-4 709, SMPTE RP177
Аудио #1
Идентификатор                    : 4352 (0x1100)
Идентификатор меню               : 1 (0x1)
Формат                           : AC-3
Формат/Информация                : Audio Coding 3
Расширение режима                : CM (complete main)
Идентификатор кодека             : 129
Продолжительность                : 1 ч. 35 м.
Вид битрейта                     : Постоянный
Битрейт                          : 192 Кбит/сек
Каналы                           : 2 канала
Расположение каналов             : Front: L R
Частота                          : 48,0 КГц
Битовая глубина                  : 16 бит
Метод сжатия                     : С потерями
Задержка видео                   : -176 мс.
Размер потока                    : 131 Мбайт (2%)
Язык                             : English
Аудио #2
Идентификатор                    : 4353 (0x1101)
Идентификатор меню               : 1 (0x1)
Формат                           : MPEG Audio
Версия формата                   : Version 1
Профиль формата                  : Layer 2
Идентификатор кодека             : 4
Продолжительность                : 1 ч. 35 м.
Вид битрейта                     : Постоянный
Битрейт                          : 256 Кбит/сек
Каналы                           : 2 канала
Частота                          : 48,0 КГц
Метод сжатия                     : С потерями
Задержка видео                   : -192 мс.
Размер потока                    : 174 Мбайт (3%)
Язык                             : nar
-

Скриншоты

[Профиль] [ЛС]
Показать сообщения:    

Текущее время: Сегодня 02:16

Часовой пояс: GMT



Вы не можете начинать темы
Вы не можете отвечать на сообщения
Вы не можете редактировать свои сообщения
Вы не можете удалять свои сообщения
Вы не можете голосовать в опросах
Вы не можете прикреплять файлы к сообщениям
Вы не можете скачивать файлы