Metallica: Сквозь невозможное / Metallica: Through the Never (2013) BDRip 720p от KinoRay | P, L1

 
Автор Сообщение

sergej644 ®

Пол:

Стаж: 4 года 11 месяцев

Сообщений: 6042

Откуда: Soviet Union



Награды: Нет

Торрент-статистика

Создавать темы 10-Фев-2015 13:55

[Цитировать]

Информация о фильме
Название: Metallica: Сквозь невозможное
Оригинальное название: Metallica: Through the Never
Год выхода: 2013
Жанр: Мюзикл, концерт, приключения
Режиссер: Нимрод Антал
В ролях: Дэйн ДеХаан, Джеймс Хетфилд, Ларс Ульрих, Кирк Хеммет, Роберт Трухильо, МакКензи Грэй, Джереми Рэймонд
О фильме: Участник технической команды группы Metallica получает задание — привезти сумку, содержимое которой необходимо группе для выступления. Сопровождая таинственную сумку он попадает в невероятные передряги! Картина представляет собой смесь игрового фильма и концерта.

Страна: США / Picturehouse Entertainment LLC
Продолжительность: 01:32:44
Перевод: Профессиональный многоголосый (ТНТ) / Любительский одноголосый (Д. Есарев)
Дата релиза: 09.10.2014
Файл
Кодек: MPEG-4 AVC
Качество: BDRip (720p)
Видео: 1280x534, 8225 Кбит/с
Звук: Русский (AC3, 2 ch, 192 Кбит/c), (AC3. 6 ch, 448 Кбит/c), (DTS, 6 ch, 1509 Кбит/с)
Субтитры: Русские, английские
Семпл

Скриншоты


Интересно

James Hetfield – lead vocals, rhythm guitar
Lars Ulrich – drums
Kirk Hammett – lead guitar
Robert Trujillo – bass

Треклист

01. The Ecstasy of Gold
02. Creeping Death
03. For Whom the Bell Tolls
04. Fuel
05. Ride the Lightning
06. One
07. The Memory Remains
08. Wherever I May Roam
09. Cyanide
10. And Justice for All
11. Master of Puppets
12. Battery
13. Nothing Else Matters
14. Enter Sandman
15. Hit the Lights
16. Orion

Инфо-файл

Аудио #1: Russian: 48 kHz, AC3 Dolby Digital, 2/0 (L,R) ch, ~192 kbps |Многоголосый закадровый, ТНТ|
Аудио #2: Russian: 48 kHz, AC3 Dolby Digital, 3/2 (L,C,R,l,r) + LFE ch, ~448 kbps |Одноголосый закадровый, Д. Есарев|
Аудио #3: English: 48 kHz, DTS, 3/2 (L,C,R,l,r) + LFE ch, ~1510 kbps
Сохранены оригинальные чаптеры, как на Blu-Ray
Релиз группы: KinoRay
F:Metallica.Through.the.Never.2013.720p.BluRay.Rus.Eng.x264-KinoRay.mkv
General
Unique ID : 203979601323910168428769891780917002422 (0x99750ACF26EA6353A8D1C81E1F3D00B6)
Complete name : F:Metallica.Through.the.Never.2013.720p.BluRay.Rus.Eng.x264-KinoRay.mkv
Format : Matroska
Format version : Version 2
File size : 7.34 GiB
Duration : 1h 32mn
Overall bit rate mode : Variable
Overall bit rate : 11.3 Mbps
Movie name : Metallica Through the Never (2013)
Encoded date : UTC 2014-10-09 17:30:58
Writing application : mkvmerge v3.3.0 ('Language') built on Mar 24 2010 14:59:24
Writing library : libebml v0.8.0 + libmatroska v0.9.0
Video #1
ID : 1
Format : AVC
Format/Info : Advanced Video Codec
Format profile : High@L4.1
Format settings, CABAC : Yes
Format settings, ReFrames : 12 frames
Codec ID : V_MPEG4/ISO/AVC
Duration : 1h 32mn
Width : 1 280 pixels
Height : 534 pixels
Display aspect ratio : 2.40:1
Original display aspect ratio : 2.40:1
Frame rate mode : Constant
Frame rate : 23.976 fps
Color space : YUV
Chroma subsampling : 4:2:0
Bit depth : 8 bits
Scan type : Progressive
Writing library : x264 core 133 r2334 a3ac64b
Encoding settings : cabac=1 / ref=12 / deblock=1:-3:-3 / analyse=0x3:0x133 / me=tesa / subme=10 / psy=1 / psy_rd=1.05:0.00 / mixed_ref=1 / me_range=24 / chroma_me=1 / trellis=2 / 8x8dct=1 / cqm=0 / deadzone=21,11 / fast_pskip=0 / chroma_qp_offset=-2 / threads=12 / lookahead_threads=2 / sliced_threads=0 / nr=0 / decimate=0 / interlaced=0 / bluray_compat=0 / constrained_intra=0 / bframes=8 / b_pyramid=2 / b_adapt=2 / b_bias=0 / direct=3 / weightb=1 / open_gop=0 / weightp=2 / keyint=250 / keyint_min=23 / scenecut=40 / intra_refresh=0 / rc_lookahead=60 / rc=crf / mbtree=1 / crf=17.0 / qcomp=0.75 / qpmin=0 / qpmax=69 / qpstep=4 / vbv_maxrate=50000 / vbv_bufsize=62500 / crf_max=0.0 / nal_hrd=none / ip_ratio=1.30 / aq=1:0.75
Language : English
Default : No
Forced : No
Audio #2
ID : 2
Format : AC-3
Format/Info : Audio Coding 3
Mode extension : CM (complete main)
Format settings, Endianness : Big
Codec ID : A_AC3
Duration : 1h 32mn
Bit rate mode : Constant
Bit rate : 192 Kbps
Channel(s) : 2 channels
Channel positions : Front: L R
Sampling rate : 48.0 KHz
Bit depth : 16 bits
Compression mode : Lossy
Stream size : 127 MiB (2%)
Title : AC3 2.0 @ 192 kbps - MVO, TНТ
Language : Russian
Default : Yes
Forced : No
Audio #3
ID : 3
Format : AC-3
Format/Info : Audio Coding 3
Mode extension : CM (complete main)
Format settings, Endianness : Big
Codec ID : A_AC3
Duration : 1h 32mn
Bit rate mode : Constant
Bit rate : 448 Kbps
Channel(s) : 6 channels
Channel positions : Front: L C R, Side: L R, LFE
Sampling rate : 48.0 KHz
Bit depth : 16 bits
Compression mode : Lossy
Stream size : 297 MiB (4%)
Title : AC3 5.1 @ 448 kbps - AVO, Есарев
Language : English
Default : No
Forced : No
Audio #4
ID : 4
Format : DTS
Format/Info : Digital Theater Systems
Mode : 16
Format settings, Endianness : Big
Codec ID : A_DTS
Duration : 1h 32mn
Bit rate mode : Constant
Bit rate : 1 509 Kbps
Channel(s) : 6 channels
Channel positions : Front: L C R, Side: L R, LFE
Sampling rate : 48.0 KHz
Bit depth : 24 bits
Compression mode : Lossy
Delay relative to video : 11ms
Stream size : 1 001 MiB (13%)
Title : DTS 5.1 @ 1510 kbps
Language : English
Default : No
Forced : No
Audio #5
ID : 5
Format : FLAC
Format/Info : Free Lossless Audio Codec
Codec ID : A_FLAC
Duration : 1h 32mn
Bit rate mode : Variable
Channel(s) : 2 channels
Sampling rate : 48.0 KHz
Bit depth : 16 bits
Title : Secondary Audio
Writing library : libFLAC 1.2.1 (UTC 2007-09-17)
Language : English
Default : No
Forced : No
Text #6
ID : 6
Format : UTF-8
Codec ID : S_TEXT/UTF8
Codec ID/Info : UTF-8 Plain Text
Title : Russian
Language : Russian
Default : No
Forced : No
Text #7
ID : 7
Format : UTF-8
Codec ID : S_TEXT/UTF8
Codec ID/Info : UTF-8 Plain Text
Title : English
Language : English
Default : No
Forced : No
[Профиль] [ЛС]
Кто просматривает тему:

Форум Тема Автор Размер
Фильмы (HD Rips | 720p, 1080p) Metallica: Сквозь невозможное / Metallica: Through the Never (2013) BDRip [720p] sergej644 7.17 GB
Показать сообщения:    

Текущее время: Сегодня 12:29

Часовой пояс: GMT



Вы не можете начинать темы
Вы не можете отвечать на сообщения
Вы не можете редактировать свои сообщения
Вы не можете удалять свои сообщения
Вы не можете голосовать в опросах
Вы не можете прикреплять файлы к сообщениям
Вы не можете скачивать файлы