Metallica - История легенды (2017) WEB-DLRip [H.264/1080p-LQ] [hand made, upscale]

 
Автор Сообщение

dybrik13 ®

Пол:

Стаж: 1 месяц 1 день

Сообщений: 86

Откуда: Киев



Награды: 1 (Подробнее)

Друг (Количество: 1)
Торрент-статистика

Создавать темы 18-Янв-2019 20:41

[Цитировать]

Metallica - История легенды- Жанр: Trash Metal, Документальный
Режиссер: Gemolin-Типичный меломан-Metallica - История легенды. Этот фильм охватывает всю историю творчества этой группы,
начиная с основания и заканчивая последними релизами, расскажет о взлётах и падениях,
значимых моментах, о потерях и достижениях. Всё это под самые знаковые песни коллектива,
если ты фанат группы с самого её создания или наоборот никогда не интересовался творчеством этого коллектива,
этот фильм хорошая возможность вспомнить старое или узнать что-то новое.
Треклист:
01. The ecstasy of Gold
02. Fuel
03. Metal Militia
04. Hit the Lights
05. Ride The Lightning

Продолжение:

06. The Four Horsemen
07. For Whom the Bell Tolls
08. Fade to Black
09. Master of Puppets
10. Welcome Home (Sanitarium)
11. One
12. Enter Sandman
13. The Unforgiven
14. Nothing Else Matters
15. Overkill (Motorhead Cover)
16. Until it Sleeps
17. Mama Said
18. The Memory Remains
19. Whiskey in the Jar
20. No Leaf Clover
21. The Call of Ktulu
22. St.Anger
23. Frantic
24. Cyanide
25. All Nightmare Long
26. The Day That Never Comes
27. The Train Kept A Rollin'
28. The View
29. Just a Bullet Away
30. Wherever i May Roam
31. Creeping Death
32. Moth Into The Flame
33. Hardwired
34. Atlas... Rise!
Продолжительность: 01:15:02
Качество видео: WEB-DLRip
Перевод: русский одноголосый любительский (Gemolin)
Субтитры: Русские (hardsub), только на некоторые фрагменты
Видео: AVC/H.264, 1920x1080, ~14.2 Mbps
Аудио: AAC, 2 ch, 512 Kbps (English)

Mediainfo:

Общее
Полное имя : G:\Клипы\Metallica - История легенды.mp4
Формат : MPEG-4
Профиль формата : Base Media / Version 2
Идентификатор кодека : mp42 (mp42/isom)
Размер файла : 7,44 Гбайт
Продолжительность : 1 ч. 15 м.
Режим общего битрейта : Переменный
Общий поток : 14,2 Мбит/сек
Дата кодирования : UTC 2017-03-01 08:12:18
Дата пометки : UTC 2017-03-01 08:12:18
Видео
Идентификатор : 2
Формат : AVC
Формат/Информация : Advanced Video Codec
Профиль формата : High@L4
Настройки формата : CABAC / 2 Ref Frames
Параметр CABAC формата : Да
Параметр RefFrames формата : 2 кадра
Параметр GOP формата : M=2, N=15
Идентификатор кодека : avc1
Идентификатор кодека/Информация : Advanced Video Coding
Продолжительность : 1 ч. 15 м.
Вид битрейта : Переменный
Битрейт : 13,7 Мбит/сек
Максимальный битрейт : 16,0 Мбит/сек
Ширина : 1920 пикселей
Высота : 1080 пикселей
Соотношение сторон : 16:9
Режим частоты кадров : Постоянный
Частота кадров : 29,970 (30000/1001) кадров/сек
Цветовое пространство : YUV
Субдискретизация насыщенности : 4:2:0
Битовая глубина : 8 бит
Тип развёртки : Прогрессивная
Бит/(Пиксели*Кадры) : 0.220
Размер потока : 7,17 Гбайт (96%)
Язык : English
Дата кодирования : UTC 2017-03-01 08:12:18
Дата пометки : UTC 2017-03-01 08:12:18
Codec configuration box : avcC
Аудио
Идентификатор : 1
Формат : AAC LC
Формат/Информация : Advanced Audio Codec Low Complexity
Идентификатор кодека : mp4a-40-2
Продолжительность : 1 ч. 15 м.
Вид битрейта : Постоянный
Битрейт : 512 Кбит/сек
Каналы : 2 канала
Channel layout : L R
Частота : 48,0 КГц
Частота кадров : 46,875 кадров/сек (1024 SPF)
Метод сжатия : С потерями
Размер потока : 275 Мбайт (4%)
Язык : English
Дата кодирования : UTC 2017-03-01 08:12:18
Дата пометки : UTC 2017-03-01 08:12:18

Дополнительные скриншоты:

Скриншоты:
[Профиль] [ЛС]
Показать сообщения:    

Текущее время: Сегодня 08:09

Часовой пояс: GMT



Вы не можете начинать темы
Вы не можете отвечать на сообщения
Вы не можете редактировать свои сообщения
Вы не можете удалять свои сообщения
Вы не можете голосовать в опросах
Вы не можете прикреплять файлы к сообщениям
Вы не можете скачивать файлы