[DTSCD][OF] Mercedes-Benz S-Class Harman/Kardon - Transported to a new reality - 2009 (Various)

 
Автор Сообщение

sergej644 ®

Пол:

Стаж: 4 года 11 месяцев

Сообщений: 6044

Откуда: Soviet Union



Награды: Нет

Торрент-статистика

Создавать темы 24-Авг-2015 18:43

[Цитировать]

--Harman Kardon DTS Demo Disc
Жанр: Various
Год выпуска диска: 2006
Производитель диска: USA
Аудио кодек: DTS
Тип рипа: image+.cue
Продолжительность: 33:26:00
Трэклист:
01. Blue Man Group - White Rabbit
02. Porcupine Tree - The sound of muzak
03. Larisa Stow -- Living in your eyes
04. Tchaikovsky - Andante from symphony #6
05. Les Brown - Satin Doll
06. Studio Voodoo - Fire
07. Blue man group - I feel love
08. Studio Voodoo - Lamentatio (Remix)
Доп. информация:

скрытый текст

Exact Audio Copy V0.99 prebeta 5 from 4. May 2009
Отчёт EAC об извлечении, выполненном 10. января 2010, 19:30
Unknown Artist / Unknown Title
Дисковод: Optiarc DVD RW AD-7170S Adapter: 2 ID: 0
Режим чтения : Достоверность
Использование точного потока : Да
Отключение кэша аудио : Да
Использование указателей C2 : Нет
Комбинированное смещение чтения/записи : 0
Способность читать области Lead-in и Lead-out : Нет
Заполнение пропущенных сэмплов тишиной : Да
Удаление блоков с тишиной в начале и конце : Нет
При вычислениях CRC использовались нулевые сэмплы : Да
Интерфейс : Встроенный Win32-интерфейс для Win NT/2000
Выходной формат : Внутренние WAV-операции
Формат сэмплов : 44.100 Гц; 16 бит; стерео
TOC извлечённого CD
Трек | Старт | Длительность | Начальный сектор | Конечный сектор
---------------------------------------------------------------------
1 | 0:00.00 | 3:00.12 | 0 | 13511
2 | 3:00.12 | 5:02.02 | 13512 | 36163
3 | 8:02.14 | 4:30.39 | 36164 | 56452
4 | 12:32.53 | 2:51.40 | 56453 | 69317
5 | 15:24.18 | 4:25.52 | 69318 | 89244
6 | 19:49.70 | 5:07.64 | 89245 | 112333
7 | 24:57.59 | 5:37.40 | 112334 | 137648
8 | 30:35.24 | 4:25.16 | 137649 | 157539
Пиковый уровень 25.0 %
Качество диапазона 99.9 %
CRC копии 177EAE47
Копирование... OK
Ошибок не произошло
[Профиль] [ЛС]
Кто просматривает тему:

Показать сообщения:    

Текущее время: Сегодня 10:06

Часовой пояс: GMT



Вы не можете начинать темы
Вы не можете отвечать на сообщения
Вы не можете редактировать свои сообщения
Вы не можете удалять свои сообщения
Вы не можете голосовать в опросах
Вы не можете прикреплять файлы к сообщениям
Вы не можете скачивать файлы