(Melodic Metal/Hard Rock) Allen/Lande - The Showdown [Japanese KICP - 1496] - 2010, APE (image+.cue) lossless

 
Автор Сообщение

sergej644 ®

Пол:

Стаж: 4 года 11 месяцев

Сообщений: 6043

Откуда: Soviet Union



Награды: Нет

Торрент-статистика

Создавать темы 09-Дек-2014 07:32

[Цитировать]

Allen/Lande / The Showdown [Japanese KICP - 1496]
Жанр: Melodic Metal/Hard Rock
Страна-производитель диска: Japan
Год издания диска: 2010
Издатель (лейбл): King Record Co.
Номер по каталогу: KICP - 1496
Страна: USA/Norway/Sweden
Аудио кодек: APE (*.ape)
Тип рипа: image+.cue
Битрейт аудио: lossless
Продолжительность: 01:01:15
Источник (релизер): собственный диск
Наличие сканов в содержимом раздачи: да
Треклист:

01. The Showdown (06:04)
02. Judgement Day (05:59)
03. Never Again (04:58)
04. Turn All Into Gold (04:01)
05. Bloodlines (05:06)
06. Copernicus (05:03)
07. We Will Rise Again (05:53)
08. The Guardian (04:40)
09. Maya (04:24)
10. The Artist (05:10)
11. Eternity (05:35)
12. Copernicus (Acoustic Version) - (Japan Bonus Track)

Лог создания рипа

Exact Audio Copy V0.99 prebeta 5 from 4. May 2009
Отчёт EAC об извлечении, выполненном 12. февраля 2011, 1:54
Allen-Lande / The Showdown [KICP - 1496]
Дисковод: Optiarc DVD RW AD-7170S   Adapter: 3  ID: 2
Режим чтения                 : Достоверность
Использование точного потока : Да
Отключение кэша аудио        : Да
Использование указателей C2  : Нет
Коррекция смещения при чтении                     : 48
Способность читать области Lead-in и Lead-out     : Нет
Заполнение пропущенных сэмплов тишиной            : Да
Удаление блоков с тишиной в начале и конце        : Нет
При вычислениях CRC использовались нулевые сэмплы : Да
Интерфейс                                         : Встроенный Win32-интерфейс для Win NT/2000
Выходной формат : Monkey's Audio Lossless Encoder v3.99 DLL
Формат сэмплов  : High Lossless Compression
TOC извлечённого CD
     Трек |   Старт  | Длительность | Начальный сектор | Конечный сектор
    ---------------------------------------------------------------------
       1  |  0:00.00 |    5:55.73   |           0      |      26697
       2  |  5:55.73 |    5:53.64   |       26698      |      53236
       3  | 11:49.62 |    4:58.24   |       53237      |      75610
       4  | 16:48.11 |    4:01.19   |       75611      |      93704
       5  | 20:49.30 |    5:06.56   |       93705      |     116710
       6  | 25:56.11 |    5:02.64   |      116711      |     139424
       7  | 30:59.00 |    5:52.69   |      139425      |     165893
       8  | 36:51.69 |    4:40.06   |      165894      |     186899
       9  | 41:32.00 |    4:24.60   |      186900      |     206759
      10  | 45:56.60 |    5:10.04   |      206760      |     230013
      11  | 51:06.64 |    5:35.00   |      230014      |     255138
      12  | 56:41.64 |    4:33.04   |      255139      |     275617
Характеристики диапазона извлечения и сообщения об ошибках
Выбранный диапазон
     Имя файла C:\Documents and Settings\Allen-Lande - The Showdown [KICP - 1496]\Allen-Lande - The Showdown.ape
     Пиковый уровень 98.1 %
     Качество диапазона 100.0 %
     CRC копии F5AA9172
     Копирование... OK
Ошибок не произошло
AccurateRip: сводка
Трек  1  нет в базе данных
Трек  2  нет в базе данных
Трек  3  нет в базе данных
Трек  4  нет в базе данных
Трек  5  нет в базе данных
Трек  6  нет в базе данных
Трек  7  нет в базе данных
Трек  8  нет в базе данных
Трек  9  нет в базе данных
Трек 10  нет в базе данных
Трек 11  нет в базе данных
Трек 12  нет в базе данных
Ни одного трека нет в базе AccurateRip
Конец отчёта

Back

OBI

Состав

Sir Russel Allen - Vocals (Symphony X, Star One, Ayreon, Russell Allen's Atomic Soul, Genius)
Jørn Lande - Vocals (Masterplan, Allen / Lande, Ark, Beyond Twilight, Mundanus Imperium, Millenium (USA), Yngwie J. Malmsteen, The Snakes, Vagabond (Nor), Wild Willy's Gang, Avantasia)
Magnus Karlsson - Guitars, Bass, Keyboards (Primal Fear, Last Tribe, Midnight Sun (Swe), Planet Alliance, The Codex)
Jaime Salazar - Drums (Blakk Totem, Last Tribe, Midnight Sun (Swe), Opus Atlantica, Timeless Miracle , Planet Alliance, Bob Catley)
[Профиль] [ЛС]
Кто просматривает тему:

Форум Тема Автор Размер
Vinyl-Rip и Hand-Made (Melodic Metal) [LP] [24/96] Glory ‎– Danger In This Game - 1989, FLAC (image+.cue) sergej644 776 MB
Показать сообщения:    

Текущее время: Сегодня 14:38

Часовой пояс: GMT



Вы не можете начинать темы
Вы не можете отвечать на сообщения
Вы не можете редактировать свои сообщения
Вы не можете удалять свои сообщения
Вы не можете голосовать в опросах
Вы не можете прикреплять файлы к сообщениям
Вы не можете скачивать файлы