Marvel: Создание Вселенной / Marvel Studios: Assembling a Universe [2014, Документальный, WEB-DL 720p]

 
Автор Сообщение

TorrentFilm ®

Пол:

Стаж: 2 года

Сообщений: 7741



Награды: Нет

Торрент-статистика

Создавать темы 26-Апр-2015 00:04

[Цитировать]

Marvel: Создание Вселенной / Marvel Studios: Assembling a Universe- Год выпуска: 2014
Страна: США
Жанр: Документальный
Продолжительность: 00:43:00-Перевод: Профессиональный (многоголосый закадровый)
Доп. инфо о переводе: СТС
Русские субтитры: нет-В ролях: Аксель Алонсо, Виктория Алонсо, Хейли Этвелл, Джеффри Белл, Шейн Блэк, Джофф Бучер, Кеннет Брана-Описание:Фильм предлагает ближе узнать историю Marvel Studios и кинематографическую вселенную Marvel. Заглядывая за кулисы съемок кинолент и беря интервью у звезд, авторы предоставляют поклонникам этой Вселенной эксклюзивный взгляд на мир кинокомиксов.- -Тип релиза: WEB-DL
Контейнер: MKV-Релиз от: - -Видео: 1280x720 at 23.976 fps, MPEG-4 AVC, ~3851 kbps avg
Аудио 1: Russian: 48 kHz, AC3, 2/0 (L,R) ch, ~192.00 kbps avg |Многоголосый закадровый, СТС|
Аудио 2: English: 48 kHz, AC3, 3/2 (L,C,R,l,r) + LFE ch, ~384.00 kbps avg-

MediaInfo

General
Unique ID : 237475582107101661820969530266038544097 (0xB2A8222AB3CB2BD2A152E120DEA7A6E1)
Complete name : D:\Downloads\Marvel.Studios.Assembling.a.Universe.2014.720p.WEB-DL.Rus.Eng.HDCLUB.mkv
Format : Matroska
Format version : Version 4 / Version 2
File size : 1.36 GiB
Duration : 43mn 0s
Overall bit rate : 4 517 Kbps
Encoded date : UTC 2015-04-21 17:23:18
Writing application : mkvmerge v7.8.0 ('River Man') 64bit built on Mar 27 2015 16:31:37
Writing library : libebml v1.3.1 + libmatroska v1.4.2
DURATION : 00:43:00.160000000
NUMBER_OF_FRAMES : 80630
NUMBER_OF_BYTES : 61923840
_STATISTICS_WRITING_APP : mkvmerge v7.8.0 ('River Man') 64bit built on Mar 27 2015 16:31:37
_STATISTICS_WRITING_DATE_UT : 2015-04-21 17:23:18
_STATISTICS_TAGS : BPS DURATION NUMBER_OF_FRAMES NUMBER_OF_BYTES
Video
ID : 1
Format : AVC
Format/Info : Advanced Video Codec
Format profile : High@L3.1
Format settings, CABAC : No
Format settings, ReFrames : 2 frames
Codec ID : V_MPEG4/ISO/AVC
Duration : 43mn 0s
Bit rate : 3 851 Kbps
Width : 1 280 pixels
Height : 720 pixels
Display aspect ratio : 16:9
Frame rate mode : Constant
Frame rate : 23.976 fps
Color space : YUV
Chroma subsampling : 4:2:0
Bit depth : 8 bits
Scan type : Progressive
Bits/(Pixel*Frame) : 0.174
Stream size : 1.16 GiB (85%)
Title : Marvel Studios: Assembling a Universe 2014
Language : English
Default : Yes
Forced : No
Color primaries : BT.709
Transfer characteristics : BT.709
Matrix coefficients : BT.709
Color range : Limited
Audio #1
ID : 2
Format : AC-3
Format/Info : Audio Coding 3
Mode extension : CM (complete main)
Format settings, Endianness : Big
Codec ID : A_AC3
Duration : 43mn 0s
Bit rate mode : Constant
Bit rate : 192 Kbps
Channel(s) : 2 channels
Channel positions : Front: L R
Sampling rate : 48.0 KHz
Bit depth : 16 bits
Compression mode : Lossy
Stream size : 59.1 MiB (4%)
Title : AC3 2.0 @ 192 kbps - СТС
Language : Russian
Default : Yes
Forced : No
Audio #2
ID : 3
Format : AC-3
Format/Info : Audio Coding 3
Mode extension : CM (complete main)
Format settings, Endianness : Big
Codec ID : A_AC3
Duration : 43mn 0s
Bit rate mode : Constant
Bit rate : 384 Kbps
Channel(s) : 6 channels
Channel positions : Front: L C R, Side: L R, LFE
Sampling rate : 48.0 KHz
Bit depth : 16 bits
Compression mode : Lossy
Stream size : 118 MiB (9%)
Title : AC3 5.1 @ 384 kbps
Language : English
Default : No
Forced : No
Text
ID : 4
Format : UTF-8
Codec ID : S_TEXT/UTF8
Codec ID/Info : UTF-8 Plain Text
Language : English
Default : No
Forced : No

Скриншоты

[Профиль] [ЛС]
Кто просматривает тему:

Показать сообщения:    

Текущее время: Сегодня 16:23

Часовой пояс: GMT



Вы не можете начинать темы
Вы не можете отвечать на сообщения
Вы не можете редактировать свои сообщения
Вы не можете удалять свои сообщения
Вы не можете голосовать в опросах
Вы не можете прикреплять файлы к сообщениям
Вы не можете скачивать файлы