Maroon 5 - iTunes Festival London (2014) WEB-DL [1080p]

 
Автор Сообщение

sergej644 ®

Пол:

Стаж: 4 года 11 месяцев

Сообщений: 6046

Откуда: Soviet Union



Награды: Нет

Торрент-статистика

Создавать темы 27-Окт-2014 09:10

[Цитировать]

-Maroon 5 - iTunes Festival London (2014) WEB-DL [1080p]- Оригинальное название: Maroon 5: iTunes Festival London
Год выпуска: 2014
Жанр: Pop Rock, Pop, Funk Rock, Blue-Eyed Soul
Описание:
iTunes Festival - ежегодный музыкальный фестиваль, проходящий в Лондоне в легендарном концертном зале "The Roundhouse",
в котором собираются все самые яркие и восходящие звезды, чтобы продемонстрировать вам 30 вечеров потрясающей живой музыки.
С 2007 года на сцене iTunes Festival побывало множество исполнителей, а их потрясающие выступления посмотрели миллионы поклонников
и с каждым годом фестиваль становился все совершеннее и совершеннее, а участников становилось все больше и больше.
В 2014 году фестиваль проходил уже в девятый раз и собрал на сцене множество популярных исполнителей, таких как: Maroon 5, David Guetta,
deadmau5, Kasabian... выступившие вместе со своими новыми альбомами, находящихся на первых строчках всех топов!

Продолжительность: 01:09:08
Качество видео: Web-DL 1080p-LQ
Видео: AVC, 1920x1080 (16:9), 23.976 fps, ~8117 Kbps (0.163 bit/pixel)
Аудио: AC-3, 48.0 KHz, 6 ch, 448 Kbps, CBR (English)

Треклист

Треклист:
01. One More Night
02. This Love
03. Lucky Strike
04. Harder to Breathe
05. Sunday Morning
06. It Was Always You
07. Maps
08. Love Somebody
09. Stereo Hearts
10. Moves Like Jagger
11. Payphone
12. She Will Be Loved
13. Daylight

MediaInfo

Complete name \Maroon 5 - iTunes.Festival.London.2014.WEB-DL1080p.mkv
Format : Matroska
Format version : Version 2
File size : 4.22 GiB
Duration : 1h 9mn
Overall bit rate : 8 739 Kbps
Encoded date : UTC 2014-09-14 16:53:56
Writing application : mkvmerge v5.8.0 ('No Sleep / Pillow') built on Sep 2 2012 15:37:04
Writing library : libebml v1.2.3 + libmatroska v1.3.0
Video
ID : 1
Format : AVC
Format/Info : Advanced Video Codec
Format profile : [url=mailto:High@L4.0]High@L4.0[/url]
Format settings, CABAC : Yes
Format settings, ReFrames : 2 frames
Codec ID : V_MPEG4/ISO/AVC
Duration : 1h 9mn
Bit rate : 8 117 Kbps
Width : 1 920 pixels
Height : 1 080 pixels
Display aspect ratio : 16:9
Frame rate mode : Constant
Frame rate : 23.976 fps
Color space : YUV
Chroma subsampling : 4:2:0
Bit depth : 8 bits
Scan type : Progressive
Bits/(Pixel*Frame) : 0.163
Stream size : 3.92 GiB (93%)
Default : Yes
Forced : No
Audio
ID : 2
Format : AC-3
Format/Info : Audio Coding 3
Mode extension : CM (complete main)
Format settings, Endianness : Big
Codec ID : A_AC3
Duration : 1h 9mn
Bit rate mode : Constant
Bit rate : 448 Kbps
Channel(s) : 6 channels
Channel positions : Front: L C R, Side: L R, LFE
Sampling rate : 48.0 KHz
Bit depth : 16 bits
Compression mode : Lossy
Stream size : 222 MiB (5%)
Language : English
Default : Yes
Forced : No
Скриншоты:
--
[Профиль] [ЛС]
Кто просматривает тему:

Показать сообщения:    

Текущее время: Сегодня 09:12

Часовой пояс: GMT



Вы не можете начинать темы
Вы не можете отвечать на сообщения
Вы не можете редактировать свои сообщения
Вы не можете удалять свои сообщения
Вы не можете голосовать в опросах
Вы не можете прикреплять файлы к сообщениям
Вы не можете скачивать файлы