(Rock) Manfred Mann - Lone Arranger - 2014, FLAC (image+.cue), lossless

 
Автор Сообщение

sergej644 ®

Пол:

Стаж: 4 года 11 месяцев

Сообщений: 6046

Откуда: Soviet Union



Награды: Нет

Торрент-статистика

Создавать темы 10-Дек-2014 21:45

[Цитировать]

-Manfred Mann - Lone Arranger
Жанр: Rock
Носитель: CD
Год издания: 2014
Издатель (лейбл): Creature Music
Номер по каталогу: MMCD22
Страна исполнителя (группы): United Kingdom
Аудиокодек: FLAC (*.flac)
Тип рипа: image+.cue
Битрейт аудио: lossless
Продолжительность: 00:46:36
Источник (релизер): rd
Наличие сканов: да
Треклист:
01. One Hand In The Air 02:54
02. All Right Now 03:57
03. Rock You 02:55
04. Footprints 03:52
05. I Came For You 03:13
06. Light My Fire 04:43
07. I Heard It Through The Grapevine 03:48
08. Nothing Compares To You 04:24
09. Insects 02:08
10. UKOR 01:45
11. Aranjuez First Movement 03:41
12. Bang A Gong 03:34
13. The Crystal Ship 01:59
14. One Way Stand-Up 03:36

Лог создания рипа

Exact Audio Copy V1.0 beta 3 from 29. August 2011
EAC extraction logfile from 7. November 2014, 18:22
Manfred Mann / Lone Arranger - Deluxe Edition CD 1
Used drive  : MATSHITABD-CMB UJ242AS   Adapter: 0  ID: 1
Read mode               : Secure
Utilize accurate stream : Yes
Defeat audio cache      : Yes
Make use of C2 pointers : No
Read offset correction                      : 103
Overread into Lead-In and Lead-Out          : No
Fill up missing offset samples with silence : Yes
Delete leading and trailing silent blocks   : No
Null samples used in CRC calculations       : Yes
Used interface                              : Installed external ASPI interface
Used output format              : User Defined Encoder
Selected bitrate                : 1024 kBit/s
Quality                         : High
Add ID3 tag                     : Yes
Command line compressor         : C:\Program Files (x86)\Exact Audio Copy\Flac\flac.exe
Additional command line options : -V -8 -T "Date=%year%" -T "Genre=%genre%" %source%
TOC of the extracted CD
     Track |   Start  |  Length  | Start sector | End sector
    ---------------------------------------------------------
        1  |  0:00.00 |  2:54.22 |         0    |    13071
        2  |  2:54.22 |  3:57.24 |     13072    |    30870
        3  |  6:51.46 |  2:55.59 |     30871    |    44054
        4  |  9:47.30 |  3:52.48 |     44055    |    61502
        5  | 13:40.03 |  3:13.71 |     61503    |    76048
        6  | 16:53.74 |  4:43.35 |     76049    |    97308
        7  | 21:37.34 |  3:47.74 |     97309    |   114407
        8  | 25:25.33 |  4:24.43 |    114408    |   134250
        9  | 29:50.01 |  2:08.72 |    134251    |   143922
       10  | 31:58.73 |  1:45.14 |    143923    |   151811
       11  | 33:44.12 |  3:41.33 |    151812    |   168419
       12  | 37:25.45 |  3:34.04 |    168420    |   184473
       13  | 40:59.49 |  1:59.62 |    184474    |   193460
       14  | 42:59.36 |  3:36.47 |    193461    |   209707
Range status and errors
Selected range
     Filename C:\EACrip\Manfred Mann - Lone Arranger - Deluxe Edition CD 1.wav
     Peak level 97.7 %
     Extraction speed 3.9 X
     Range quality 99.9 %
     Test CRC 8E94C872
     Copy CRC 8E94C872
     Copy OK
No errors occurred
AccurateRip summary
Track  1  not present in database
Track  2  not present in database
Track  3  not present in database
Track  4  not present in database
Track  5  not present in database
Track  6  not present in database
Track  7  not present in database
Track  8  not present in database
Track  9  not present in database
Track 10  not present in database
Track 11  not present in database
Track 12  not present in database
Track 13  not present in database
Track 14  not present in database
None of the tracks are present in the AccurateRip database
End of status report
==== Log checksum D904FA26ABC55027A676C4910A4C7048668CB5C13EF8A0267E46B6A3DD59A73A ====
[Профиль] [ЛС]
Кто просматривает тему:

Показать сообщения:    

Текущее время: Сегодня 20:43

Часовой пояс: GMT



Вы не можете начинать темы
Вы не можете отвечать на сообщения
Вы не можете редактировать свои сообщения
Вы не можете удалять свои сообщения
Вы не можете голосовать в опросах
Вы не можете прикреплять файлы к сообщениям
Вы не можете скачивать файлы