(Hard Rock)Magnum - Escape From the Shadow Garden (2014) [FLAC, (image+cue), Lossless]

 
Автор Сообщение

sergej644 ®

Пол:

Стаж: 4 года 11 месяцев

Сообщений: 6046

Откуда: Soviet Union



Награды: Нет

Торрент-статистика

Создавать темы 13-Окт-2014 07:28

[Цитировать]

-Magnum - Escape From the Shadow Garden (2014)-Год: 2014
Жанр: Hard Rock
Страна: Великобритания
Продолжительность: 01:02:41
Издатель: Steamhammer/SPV
Кодек: FLAC (image+.cue)
Битрейт: Lossless
Треклист:
01. Live Til' You Die (6:29)
02. Unwritten Sacrifice (5:28)
03. Falling For The Big Plan (5:59)
04. Crying In The Rain (5:45)
05. Too Many Clowns (4:36)
06. Midnight Angel (7:18)
07. The Art Of Compromise (5:01)
08. Don't Fall Asleep (5:59)
09. Wisdom's Had Its Day (4:44)
10. Burning River (4:43)
11. The Valley Of Tears (6:39)

Отчёт ЕАС:

EAC extraction logfile from 17. March 2014, 7:29 for CD
Magnum / Escape From Shadow Gaden
Used drive  : Optiarc DVD RW AD-7560S   Adapter: 1  ID: 0
Read mode   : Secure with NO C2, accurate stream, disable cache
Read offset correction : 6
Overread into Lead-In and Lead-Out : No
Used output format : Internal WAV Routines
                     44.100 Hz; 16 Bit; Stereo
Other options      :
    Fill up missing offset samples with silence : Yes
    Delete leading and trailing silent blocks : No
    Native Win32 interface for Win NT & 2000
Range status and errors
Selected range
     Filename C:\Users\MSI\Videos\Magnum - Escape From Shadow Gaden.wav
     Peak level 98.8 %
     Range quality 100.0 %
     CRC 4A67249A
     Copy OK
No errors occured
End of status report

Отчёт auCDtect Task manager:

-----------------------
DON'T MODIFY THIS FILE
-----------------------
PERFORMER: auCDtect Task Manager, ver. 1.5.1RC4 build 1.5.1.5
Copyright (c) 2008-2010 y-soft. All rights reserved
http://y-soft.org
ANALYZER: auCDtect: CD records authenticity detector, version 0.8.2
Copyright (c) 2004 Oleg Berngardt. All rights reserved.
Copyright (c) 2004 Alexander Djourik. All rights reserved.
FILE: Magnum - Escape From Shadow Garden.flac
  Size: 478863014 Hash: 6D3D38ED8A9E2FF5DA4D4FDA43C680EF Accuracy: -m0
  Conclusion: CDDA 100%
  Signature: 5DC4743719CE9BBBE21B0B987BE0A96AC4A8BE32

Отчёт AccurateRip:

[CUETools log; Date: 25.05.2014 11:04:40; Version: 2.1.5]
[CTDB TOCID: R_dIRw4GZJgbErrEhX0w17H528k-] found.
Track | CTDB Status
  1   | (1/2) Accurately ripped
  2   | (1/2) Accurately ripped
  3   | (1/2) Accurately ripped
  4   | (1/2) Accurately ripped
  5   | (1/2) Accurately ripped
  6   | (1/2) Accurately ripped
  7   | (1/2) Accurately ripped
  8   | (1/2) Accurately ripped
  9   | (1/2) Accurately ripped
10   | (1/2) Accurately ripped
11   | (1/2) Accurately ripped
[AccurateRip ID: 001a2ab9-00e16ec2-9d0eb00b] found.
Track   [  CRC   |   V2   ] Status
01     [f9779aac|8aaad408] (0+1/3) Accurately ripped
02     [dec10b51|1de45598] (0+1/3) Accurately ripped
03     [7cb51457|108eef9b] (0+1/3) Accurately ripped
04     [daf801b9|6255923c] (0+1/3) Accurately ripped
05     [adbd00bd|c115d50b] (0+1/3) Accurately ripped
06     [cf4056ce|819f2af9] (0+1/3) Accurately ripped
07     [b0c805dd|bb7688b3] (0+1/3) Accurately ripped
08     [52b9f06b|30917d94] (0+1/3) Accurately ripped
09     [3e31d997|01ae1afe] (0+1/3) Accurately ripped
10     [d218a24a|e2a617fd] (0+1/3) Accurately ripped
11     [520a5f3b|8e1258cf] (0+1/3) Accurately ripped
Track Peak [ CRC32  ] [W/O NULL] [  LOG   ]
--   98,8 [18737921] [4A67249A]  W/O NULL
01   98,7 [CE218BAA] [A9BE5695]
02   98,8 [4A012904] [DE598866]
03   98,8 [FBA84C94] [97C99988]
04   98,5 [6DD10352] [587FF035]
05   98,8 [9668238B] [2B3366BD]
06   98,8 [762297A8] [7BFEF2B8]
07   98,8 [60089F54] [52CF957E]
08   98,8 [C241B3F5] [B7B157C6]
09   98,8 [47795E3A] [43B81935]
10   98,8 [412EC160] [9C947AEA]
11   98,8 [73EFFEF8] [B244663E]
Время раздачи: Обычно с 19:00 до 00:00-
[Профиль] [ЛС]
Показать сообщения:    

Текущее время: Сегодня 21:34

Часовой пояс: GMT



Вы не можете начинать темы
Вы не можете отвечать на сообщения
Вы не можете редактировать свои сообщения
Вы не можете удалять свои сообщения
Вы не можете голосовать в опросах
Вы не можете прикреплять файлы к сообщениям
Вы не можете скачивать файлы