Mad - For Dancin' - 28 Superhits (2006) [APE|Lossless]<Disco>

 
Автор Сообщение

sergej644 ®

Пол:

Стаж: 4 года 11 месяцев

Сообщений: 6042

Откуда: Soviet Union



Награды: Нет

Торрент-статистика

Создавать темы 24-Дек-2014 22:47

[Цитировать]

-Mad - For Dancin' - 28 Superhits (2006)- Год: 2006
Лейбл: ESonCD
Каталог #: 200613-2
Жанр: Disco
Продолжительность: 00:39:40
Кодек: APE
Битрейт: Lossless
Тип битрейта: image +.cue
Треклист:
01. Mad For Dancin' (Part I) 0:50
02. Billie Jean 1:45
03. Let's Dance 1:58
04. Passion 1:44
05. Eye In The Sky 1:33
06. Voulez-Vous Coucher Avec Moi 1:39
07. The Bushman 1:49
08. Too Shy 1:44
09. Wot 1:41
10. Last Night A D.J.Saved My Life 1:22
11. Down Under 1:31
12. Boonoonoonoos 1:23
13. Do You Really Want To Hurt Me 0:57
14. Just An Illusion 0:45
15. Mad For Dancin' 0:39
16. Mad For Dancin' (Part II) 1:02
17. I Don't Wanna Dance 1:32

Продолжение треклиста&#58;

18. Electric Avenue 0:54
19. Don't Go 1:13
20. Hands Up 1:17
21. Don't You Want Me 1:38
22. Abracadabra 1:33
23. Eye Of The Tiger 1:28
24. Saddle Up (And Ride Your Pony) 1:38
25. Moonlight 1:10
26. On The Road Again 1:37
27. Meditation 1:40
28. Born Again 1:41

Отчет EAC

Exact Audio Copy V0.99 prebeta 5 from 4. May 2009
Отчёт EAC об извлечении, выполненном 13. сентября 2009, 0:18
Mad / For Dancin' 28 Superhits
Дисковод: Optiarc DVD RW AD-5200A Adapter: 0 ID: 0
Режим чтения : Достоверность
Использование точного потока : Да
Отключение кэша аудио : Да
Использование указателей C2 : Нет
Коррекция смещения при чтении : 48
Способность читать области Lead-in и Lead-out : Нет
Заполнение пропущенных сэмплов тишиной : Да
Удаление блоков с тишиной в начале и конце : Нет
При вычислениях CRC использовались нулевые сэмплы : Да
Интерфейс : Установленный внешний ASPI-интерфейс
Выходной формат : Внутренние WAV-операции
Формат сэмплов : 44.100 Гц; 16 бит; стерео
TOC извлечённого CD
Трек | Старт | Длительность | Начальный сектор | Конечный сектор
---------------------------------------------------------------------
1 | 0:00.00 | 0:49.57 | 0 | 3731
2 | 0:49.57 | 1:44.43 | 3732 | 11574
3 | 2:34.25 | 1:58.26 | 11575 | 20450
4 | 4:32.51 | 1:44.09 | 20451 | 28259
5 | 6:16.60 | 1:32.59 | 28260 | 35218
6 | 7:49.44 | 1:38.54 | 35219 | 42622
7 | 9:28.23 | 1:48.47 | 42623 | 50769
8 | 11:16.70 | 1:43.69 | 50770 | 58563
9 | 13:00.64 | 1:40.57 | 58564 | 66120
10 | 14:41.46 | 1:22.17 | 66121 | 72287
11 | 16:03.63 | 1:31.37 | 72288 | 79149
12 | 17:35.25 | 1:22.58 | 79150 | 85357
13 | 18:58.08 | 0:56.64 | 85358 | 89621
14 | 19:54.72 | 0:45.36 | 89622 | 93032
15 | 20:40.33 | 0:38.55 | 93033 | 95937
16 | 21:19.13 | 1:01.47 | 95938 | 100559
17 | 22:20.60 | 1:32.32 | 100560 | 107491
18 | 23:53.17 | 0:54.18 | 107492 | 111559
19 | 24:47.35 | 1:12.48 | 111560 | 117007
20 | 26:00.08 | 1:16.47 | 117008 | 122754
21 | 27:16.55 | 1:37.52 | 122755 | 130081
22 | 28:54.32 | 1:32.73 | 130082 | 137054
23 | 30:27.30 | 1:27.39 | 137055 | 143618
24 | 31:54.69 | 1:37.65 | 143619 | 150958
25 | 33:32.59 | 1:10.02 | 150959 | 156210
26 | 34:42.61 | 1:36.44 | 156211 | 163454
27 | 36:19.30 | 1:40.35 | 163455 | 170989
28 | 37:59.65 | 1:41.08 | 170990 | 178572
Характеристики диапазона извлечения и сообщения об ошибках
Выбранный диапазон
Имя файла E:\Mad - For Dancin' 28 Superhits\Mad - For Dancin' 28 Superhits.wav
Пиковый уровень 98.8 %
Качество диапазона 100.0 %
CRC теста B00D0D59
CRC копии B00D0D59
Копирование... OK
Ошибок не произошло
AccurateRip: сводка
Трек 1 нет в базе данных
Трек 2 нет в базе данных
Трек 3 нет в базе данных
Трек 4 нет в базе данных
Трек 5 нет в базе данных
Трек 6 нет в базе данных
Трек 7 нет в базе данных
Трек 8 нет в базе данных
Трек 9 нет в базе данных
Трек 10 нет в базе данных
Трек 11 нет в базе данных
Трек 12 нет в базе данных
Трек 13 нет в базе данных
Трек 14 нет в базе данных
Трек 15 нет в базе данных
Трек 16 нет в базе данных
Трек 17 нет в базе данных
Трек 18 нет в базе данных
Трек 19 нет в базе данных
Трек 20 нет в базе данных
Трек 21 нет в базе данных
Трек 22 нет в базе данных
Трек 23 нет в базе данных
Трек 24 нет в базе данных
Трек 25 нет в базе данных
Трек 26 нет в базе данных
Трек 27 нет в базе данных
Трек 28 нет в базе данных
Ни одного трека нет в базе AccurateRip
Конец отчёта

Отчёт auCDtect&#58;

-----------------------
DON'T MODIFY THIS FILE
-----------------------
PERFORMER: auCDtect Task Manager, ver. 1.6.0 RC1 build 1.6.0.1
Copyright (c) 2008-2010 y-soft. All rights reserved
http://y-soft.org
ANALYZER: auCDtect: CD records authenticity detector, version 0.8.2
Copyright (c) 2004 Oleg Berngardt. All rights reserved.
Copyright (c) 2004 Alexander Djourik. All rights reserved.
FILE: Mad - For Dancin' 28 Superhits.ape
  Size: 257575348 Hash: BE1656659ABF7883CB1F7FAAE9810AD7 Accuracy: -m0
  Conclusion: CDDA 100%
  Signature: 6334D2B1FE3E8A13E522423C07BA01FF992F57D3
[Профиль] [ЛС]

Создавать темы 13-Авг-2015 10:41 (спустя 7 месяцев 20 дней)

Топик был перенесен из форума Зарубежная в форум Technopop, Eurodance, Disco
sergej644
 
Кто просматривает тему:

Показать сообщения:    

Текущее время: Сегодня 20:09

Часовой пояс: GMT



Вы не можете начинать темы
Вы не можете отвечать на сообщения
Вы не можете редактировать свои сообщения
Вы не можете удалять свои сообщения
Вы не можете голосовать в опросах
Вы не можете прикреплять файлы к сообщениям
Вы не можете скачивать файлы