Luv - You're The Greatest Luver (1996) [FLAC|Lossless]<Disco>

 
Автор Сообщение

sergej644 ®

Пол:

Стаж: 4 года 11 месяцев

Сообщений: 6046

Откуда: Soviet Union



Награды: Нет

Торрент-статистика

Создавать темы 24-Дек-2014 22:21

[Цитировать]

-Luv - You're The Greatest Luver (1996)- Год: 1996
Лейбл: Mercury
Каталог #: 538 147-2
Жанр: Disco
Продолжительность: 01:06:35
Кодек: FLAC
Битрейт: Lossless
Тип битрейта: image +.cue
Треклист:
01. You're The Greatest Lover 2:53
02. Casanova 3:51
03. U.O.Me 2:56
04. My Number One 3:14
05. Shoes Off (Boots On) 3:08
06. Don Juanita De Carnaval 3:12
07. Trojan Horse 3:24
08. Louis Je T'Adore 3:42
09. Don't Let Me Down 2:36
10. Eeny Meeny Miny Moe 2:53
11. D.J. 3:21
12. Yes I Do 2:59
13. Ann-Maria 4:38
14. One More Little Kissy 3:47
15. Tingalingaling 2:32
16. Marcellino 3:15
17. I Like Sugar Candy Kisses 3:34
18. If You Love Me 2:34
19. I.M.U.R. 3:35
20. Luv Hitpack (Medley) 4:30

Отчёт ЕАС&#58;

Exact Audio Copy V0.99 prebeta 5 from 4. May 2009
Отчёт EAC об извлечении, выполненном 18. октября 2009, 18:27
Luv / You're The Greatest Luver
Дисковод: Optiarc DVD RW AD-5200A Adapter: 0 ID: 0
Режим чтения : Достоверность
Использование точного потока : Да
Отключение кэша аудио : Да
Использование указателей C2 : Нет
Коррекция смещения при чтении : 48
Способность читать области Lead-in и Lead-out : Нет
Заполнение пропущенных сэмплов тишиной : Да
Удаление блоков с тишиной в начале и конце : Нет
При вычислениях CRC использовались нулевые сэмплы : Да
Интерфейс : Установленный внешний ASPI-интерфейс
Выходной формат : Внутренние WAV-операции
Формат сэмплов : 44.100 Гц; 16 бит; стерео
TOC извлечённого CD
Трек | Старт | Длительность | Начальный сектор | Конечный сектор
---------------------------------------------------------------------
1 | 0:00.00 | 2:52.73 | 0 | 12972
2 | 2:52.73 | 3:51.22 | 12973 | 30319
3 | 6:44.20 | 2:56.30 | 30320 | 43549
4 | 9:40.50 | 3:13.66 | 43550 | 58090
5 | 12:54.41 | 3:07.53 | 58091 | 72168
6 | 16:02.19 | 3:12.31 | 72169 | 86599
7 | 19:14.50 | 3:24.14 | 86600 | 101913
8 | 22:38.64 | 3:41.54 | 101914 | 118542
9 | 26:20.43 | 2:36.27 | 118543 | 130269
10 | 28:56.70 | 2:52.64 | 130270 | 143233
11 | 31:49.59 | 3:21.16 | 143234 | 158324
12 | 35:11.00 | 2:59.10 | 158325 | 171759
13 | 38:10.10 | 4:37.56 | 171760 | 192590
14 | 42:47.66 | 3:47.14 | 192591 | 209629
15 | 46:35.05 | 2:32.03 | 209630 | 221032
16 | 49:07.08 | 3:14.47 | 221033 | 235629
17 | 52:21.55 | 3:33.72 | 235630 | 251676
18 | 55:55.52 | 2:34.09 | 251677 | 263235
19 | 58:29.61 | 3:35.12 | 263236 | 279372
20 | 62:04.73 | 4:30.13 | 279373 | 299635
Характеристики диапазона извлечения и сообщения об ошибках
Выбранный диапазон
Имя файла E:\Luv - You're The Greatest Luver\Luv - You're The Greatest Luver.wav
Пиковый уровень 100.0 %
Качество диапазона 100.0 %
CRC теста 7F9A6016
CRC копии 7F9A6016
Копирование... OK
Ошибок не произошло
AccurateRip: сводка
Трек 1 точность не определена (достоверность 2) [D123F38A], AccurateRip вернул [54B5C07A]
Трек 2 точность не определена (достоверность 2) [7DA31E80], AccurateRip вернул [D514D980]
Трек 3 точность не определена (достоверность 2) [B17E9EF7], AccurateRip вернул [D9024227]
Трек 4 точность не определена (достоверность 2) [126BD826], AccurateRip вернул [1B1BCA96]
Трек 5 точность не определена (достоверность 2) [955B8D64], AccurateRip вернул [9EED4434]
Трек 6 точность не определена (достоверность 2) [21D0EDF1], AccurateRip вернул [6E176371]
Трек 7 точность не определена (достоверность 2) [F221C4E7], AccurateRip вернул [DEB79927]
Трек 8 точность не определена (достоверность 2) [E0D56042], AccurateRip вернул [F0AE90A2]
Трек 9 точность не определена (достоверность 2) [491DCAC2], AccurateRip вернул [B0CA0542]
Трек 10 точность не определена (достоверность 2) [0EEF6F9C], AccurateRip вернул [8A18CE3C]
Трек 11 точность не определена (достоверность 2) [5C3E4B3E], AccurateRip вернул [195C073E]
Трек 12 точность не определена (достоверность 2) [D539346F], AccurateRip вернул [2BDDE17F]
Трек 13 точность не определена (достоверность 2) [F1F93A47], AccurateRip вернул [1562E7F7]
Трек 14 точность не определена (достоверность 2) [E0739809], AccurateRip вернул [2753C509]
Трек 15 точность не определена (достоверность 2) [49EA360C], AccurateRip вернул [EA6EFB8C]
Трек 16 точность не определена (достоверность 2) [6E84E4FE], AccurateRip вернул [BC79304E]
Трек 17 точность не определена (достоверность 2) [386A53CB], AccurateRip вернул [412674BB]
Трек 18 точность не определена (достоверность 2) [A188C820], AccurateRip вернул [8E582150]
Трек 19 точность не определена (достоверность 2) [7F937056], AccurateRip вернул [7DE244A6]
Трек 20 точность не определена (достоверность 2) [319C8A25], AccurateRip вернул [8DD842A5]
Ни один трек не прошёл проверки на точность
В вашей базе может быть иной вариант штамповки диска
Конец отчёта

Отчёт auCDtect Task manager&#58;

-----------------------
DON'T MODIFY THIS FILE
-----------------------
PERFORMER: auCDtect Task Manager, ver. 1.5.1RC4 build 1.5.1.5
Copyright (c) 2008-2010 y-soft. All rights reserved
http://y-soft.org
ANALYZER: auCDtect: CD records authenticity detector, version 0.8.2
Copyright (c) 2004 Oleg Berngardt. All rights reserved.
Copyright (c) 2004 Alexander Djourik. All rights reserved.
FILE: Luv - You're The Greatest Luver.flac
  Size: 455969303 Hash: C0E30955BB71A1C8F7FF51D63B5D2F5C Accuracy: -m0
  Conclusion: CDDA 99%
  Signature: CD16C5567FB64729C4D869AE6A079423541F750F

Содержание индексной карты (.CUE&#41;&#58;

REM GENRE Disco
REM DATE 1998
REM DISCID 2B0F9B14
REM COMMENT "ExactAudioCopy v0.99pb5"
PERFORMER "Luv"
TITLE "You're The Greatest Luver"
FILE "Luv - You're The Greatest Luver.flac" WAVE
  TRACK 01 AUDIO
    TITLE "You're The Greatest Lover"
    PERFORMER "Luv"
    INDEX 01 00:00:00
  TRACK 02 AUDIO
    TITLE "Casanova"
    PERFORMER "Luv"
    INDEX 00 02:52:33
    INDEX 01 02:52:73
  TRACK 03 AUDIO
    TITLE "U.O.Me"
    PERFORMER "Luv"
    INDEX 00 06:43:43
    INDEX 01 06:44:20
  TRACK 04 AUDIO
    TITLE "My Number One"
    PERFORMER "Luv"
    INDEX 00 09:39:67
    INDEX 01 09:40:50
  TRACK 05 AUDIO
    TITLE "Shoes Off (Boots On) "
    PERFORMER "Luv"
    INDEX 00 12:53:34
    INDEX 01 12:54:41
  TRACK 06 AUDIO
    TITLE "Don Juanita De Carnaval"
    PERFORMER "Luv"
    INDEX 00 16:01:50
    INDEX 01 16:02:19
  TRACK 07 AUDIO
    TITLE "Trojan Horse"
    PERFORMER "Luv"
    INDEX 01 19:14:50
  TRACK 08 AUDIO
    TITLE "Louis Je T'Adore"
    PERFORMER "Luv"
    INDEX 00 22:38:22
    INDEX 01 22:38:64
  TRACK 09 AUDIO
    TITLE "Don't Let Me Down"
    PERFORMER "Luv"
    INDEX 00 26:19:11
    INDEX 01 26:20:43
  TRACK 10 AUDIO
    TITLE "Eeny Meeny Miny Moe"
    PERFORMER "Luv"
    INDEX 00 28:56:39
    INDEX 01 28:56:70
  TRACK 11 AUDIO
    TITLE "D.J."
    PERFORMER "Luv"
    INDEX 00 31:49:22
    INDEX 01 31:49:59
  TRACK 12 AUDIO
    TITLE "Yes I Do"
    PERFORMER "Luv"
    INDEX 00 35:10:33
    INDEX 01 35:11:00
  TRACK 13 AUDIO
    TITLE "Ann-Maria"
    PERFORMER "Luv"
    INDEX 00 38:09:09
    INDEX 01 38:10:10
  TRACK 14 AUDIO
    TITLE "One More Little Kissy"
    PERFORMER "Luv"
    INDEX 00 42:47:16
    INDEX 01 42:47:66
  TRACK 15 AUDIO
    TITLE "Tingalingaling"
    PERFORMER "Luv"
    INDEX 00 46:34:45
    INDEX 01 46:35:05
  TRACK 16 AUDIO
    TITLE "Marcellino"
    PERFORMER "Luv"
    INDEX 00 49:05:50
    INDEX 01 49:07:08
  TRACK 17 AUDIO
    TITLE "I Like Sugar Candy Kisses"
    PERFORMER "Luv"
    INDEX 00 52:21:29
    INDEX 01 52:21:55
  TRACK 18 AUDIO
    TITLE "If You Love Me"
    PERFORMER "Luv"
    INDEX 00 55:55:34
    INDEX 01 55:55:52
  TRACK 19 AUDIO
    TITLE "I.M.U.R."
    PERFORMER "Luv"
    INDEX 01 58:29:61
  TRACK 20 AUDIO
    TITLE "Luv Hitpack (Medley)"
    PERFORMER "Luv"
    INDEX 01 62:04:73
[Профиль] [ЛС]

Создавать темы 13-Авг-2015 10:44 (спустя 7 месяцев 20 дней)

Топик был перенесен из форума Зарубежная в форум Technopop, Eurodance, Disco
sergej644
 
Кто просматривает тему:

Показать сообщения:    

Текущее время: Сегодня 05:20

Часовой пояс: GMT



Вы не можете начинать темы
Вы не можете отвечать на сообщения
Вы не можете редактировать свои сообщения
Вы не можете удалять свои сообщения
Вы не можете голосовать в опросах
Вы не можете прикреплять файлы к сообщениям
Вы не можете скачивать файлы