Luv' - Gold (1993) [FLAC|Lossless]<Disco>

 
Автор Сообщение

sergej644 ®

Пол:

Стаж: 4 года 11 месяцев

Сообщений: 6045

Откуда: Soviet Union



Награды: Нет

Торрент-статистика

Создавать темы 24-Дек-2014 22:22

[Цитировать]

-Luv' - Gold (1993)- Год: 1993
Лейбл: Arcade
Каталог #: 99 02 186
Жанр: Disco
Продолжительность: 01:05:08
Кодек: FLAC
Битрейт: Lossless
Тип битрейта: image +.cue
Треклист:
01. You're The Greatest Lover 2:52
02. U.O.Me 2:58
03. Trojan Horse 3:25
04. My Man 3:05
05. Eeny Meeny Miny Moe 3:00
06. Ooh, Yes I Do 2:59
07. I Like Sugar Candy Kisses 3:37
08. Dream, Dream 3:30
09. One More Little Kissie 3:47
10. Life Is On My Side 2:38
11. Ann - Maria 4:41
12. Casanova 3:52
13. I.M.U.R. 3:37
14. Tingalingaling 2:32
15. Boys Goodnight 2:40
16. Getaway 3:05
17. Shoes Off (Botts On) 3:08
18. My Number One 3:12
19. Who Do You Wanna Be 3:43
20. Megamix 2:50

Отчёт ЕАС&#58;

Exact Audio Copy V0.99 prebeta 5 from 4. May 2009
Отчёт EAC об извлечении, выполненном 15. марта 2010, 13:09
Luv' / Gold
Дисковод: PIONEER DVD-RW DVR-107D Adapter: 3 ID: 0
Режим чтения : Достоверность
Использование точного потока : Да
Отключение кэша аудио : Да
Использование указателей C2 : Нет
Коррекция смещения при чтении : 48
Способность читать области Lead-in и Lead-out : Нет
Заполнение пропущенных сэмплов тишиной : Да
Удаление блоков с тишиной в начале и конце : Нет
При вычислениях CRC использовались нулевые сэмплы : Да
Интерфейс : Встроенный Win32-интерфейс для Win NT/2000
Выходной формат : Внутренние WAV-операции
Формат сэмплов : 44.100 Гц; 16 бит; стерео
TOC извлечённого CD
Трек | Старт | Длительность | Начальный сектор | Конечный сектор
---------------------------------------------------------------------
1 | 0:00.32 | 2:51.60 | 32 | 12916
2 | 2:52.17 | 2:58.23 | 12917 | 26289
3 | 5:50.40 | 3:25.00 | 26290 | 41664
4 | 9:15.40 | 3:05.35 | 41665 | 55574
5 | 12:21.00 | 2:59.70 | 55575 | 69069
6 | 15:20.70 | 2:58.72 | 69070 | 82491
7 | 18:19.67 | 3:36.55 | 82492 | 98746
8 | 21:56.47 | 3:30.00 | 98747 | 114496
9 | 25:26.47 | 3:46.68 | 114497 | 131514
10 | 29:13.40 | 2:38.35 | 131515 | 143399
11 | 31:52.00 | 4:41.00 | 143400 | 164474
12 | 36:33.00 | 3:51.57 | 164475 | 181856
13 | 40:24.57 | 3:36.50 | 181857 | 198106
14 | 44:01.32 | 2:31.40 | 198107 | 209471
15 | 46:32.72 | 2:39.58 | 209472 | 221454
16 | 49:12.55 | 3:04.40 | 221455 | 235294
17 | 52:17.20 | 3:07.62 | 235295 | 249381
18 | 55:25.07 | 3:11.43 | 249382 | 263749
19 | 58:36.50 | 3:42.45 | 263750 | 280444
20 | 62:19.20 | 2:50.00 | 280445 | 293194
Характеристики диапазона извлечения и сообщения об ошибках
Выбранный диапазон
Имя файла H:\All\Music\Luv' - Gold\Luv' - Gold.wav
Пиковый уровень 100.0 %
Качество диапазона 100.0 %
CRC теста 116EF872
CRC копии 116EF872
Копирование... OK
Ошибок не произошло
AccurateRip: сводка
Трек 1 точное извлечение (доверие 3) [968BAE3C]
Трек 2 точное извлечение (доверие 3) [D264D74A]
Трек 3 точное извлечение (доверие 3) [51A0F45B]
Трек 4 точное извлечение (доверие 3) [72CD566A]
Трек 5 точное извлечение (доверие 3) [ECD0E01B]
Трек 6 точное извлечение (доверие 3) [9E72B617]
Трек 7 точное извлечение (доверие 3) [8D9069C2]
Трек 8 точное извлечение (доверие 3) [76D9E9DD]
Трек 9 точное извлечение (доверие 3) [C8690B36]
Трек 10 точное извлечение (доверие 3) [5F087966]
Трек 11 точное извлечение (доверие 3) [97D928ED]
Трек 12 точное извлечение (доверие 3) [92396E42]
Трек 13 точное извлечение (доверие 3) [3921F642]
Трек 14 точное извлечение (доверие 3) [BD6E365F]
Трек 15 точное извлечение (доверие 3) [A48E2DB4]
Трек 16 точное извлечение (доверие 3) [6BA3749A]
Трек 17 точное извлечение (доверие 3) [1C3DC85C]
Трек 18 точное извлечение (доверие 3) [C7F3BB4D]
Трек 19 точное извлечение (доверие 3) [2A2DCDBE]
Трек 20 точное извлечение (доверие 2) [1FDE4A68]
Все треки извлечены точно
Конец отчёта

Отчёт auCDtect Task manager&#58;

-----------------------
DON'T MODIFY THIS FILE
-----------------------
PERFORMER: auCDtect Task Manager, ver. 1.5.1RC4 build 1.5.1.5
Copyright (c) 2008-2010 y-soft. All rights reserved
http://y-soft.org
ANALYZER: auCDtect: CD records authenticity detector, version 0.8.2
Copyright (c) 2004 Oleg Berngardt. All rights reserved.
Copyright (c) 2004 Alexander Djourik. All rights reserved.
FILE: Luv' - Gold.flac
  Size: 450133691 Hash: 5615CD9457D5671E8F7309BEC14E09CC Accuracy: -m0
  Conclusion: CDDA 100%
  Signature: 6B69509501A309817338693409FE57B84D81CABB

Содержание индексной карты (.CUE&#41;&#58;

REM GENRE Disco
REM DATE 1993
REM DISCID 1D0F4514
REM COMMENT "ExactAudioCopy v0.99pb5"
CATALOG 0000000000000
PERFORMER "Luv'"
TITLE "Gold"
FILE "Luv' - Gold.flac" WAVE
  TRACK 01 AUDIO
    TITLE "You're The Greatest Lover"
    PERFORMER "Luv'"
    ISRC 000000000000
    INDEX 00 00:00:00
    INDEX 01 00:00:32
  TRACK 02 AUDIO
    TITLE "U.O.Me"
    PERFORMER "Luv'"
    ISRC 000000000000
    INDEX 00 02:51:07
    INDEX 01 02:52:17
  TRACK 03 AUDIO
    TITLE "Trojan Horse"
    PERFORMER "Luv'"
    ISRC 000000000000
    INDEX 00 05:49:52
    INDEX 01 05:50:40
  TRACK 04 AUDIO
    TITLE "My Man"
    PERFORMER "Luv'"
    ISRC 000000000000
    INDEX 00 09:14:42
    INDEX 01 09:15:40
  TRACK 05 AUDIO
    TITLE "Eeny Meeny Miny Moe"
    PERFORMER "Luv'"
    ISRC 000000000000
    INDEX 00 12:19:67
    INDEX 01 12:21:00
  TRACK 06 AUDIO
    TITLE "Ooh, Yes I Do"
    PERFORMER "Luv'"
    ISRC 000000000000
    INDEX 00 15:20:22
    INDEX 01 15:20:70
  TRACK 07 AUDIO
    TITLE "I Like Sugar Candy Kisses"
    PERFORMER "Luv'"
    ISRC 000000000000
    INDEX 00 18:18:52
    INDEX 01 18:19:67
  TRACK 08 AUDIO
    TITLE "Dream, Dream"
    PERFORMER "Luv'"
    ISRC 000000000000
    INDEX 00 21:56:17
    INDEX 01 21:56:47
  TRACK 09 AUDIO
    TITLE "One More Little Kissie"
    PERFORMER "Luv'"
    ISRC 000000000000
    INDEX 00 25:25:72
    INDEX 01 25:26:47
  TRACK 10 AUDIO
    TITLE "Life Is On My Side"
    PERFORMER "Luv'"
    ISRC 000000000000
    INDEX 00 29:12:57
    INDEX 01 29:13:40
  TRACK 11 AUDIO
    TITLE "Ann-Maria"
    PERFORMER "Luv'"
    ISRC 000000000000
    INDEX 00 31:51:20
    INDEX 01 31:52:00
  TRACK 12 AUDIO
    TITLE "Casanova"
    PERFORMER "Luv'"
    ISRC 000000000000
    INDEX 00 36:32:27
    INDEX 01 36:33:00
  TRACK 13 AUDIO
    TITLE "I.M.U.R."
    PERFORMER "Luv'"
    ISRC 000000000000
    INDEX 00 40:24:05
    INDEX 01 40:24:57
  TRACK 14 AUDIO
    TITLE "Tingalingaling"
    PERFORMER "Luv'"
    ISRC 000000000000
    INDEX 00 44:01:07
    INDEX 01 44:01:32
  TRACK 15 AUDIO
    TITLE "Boys Goodnight"
    PERFORMER "Luv'"
    ISRC 000000000000
    INDEX 00 46:32:00
    INDEX 01 46:32:72
  TRACK 16 AUDIO
    TITLE "Getaway"
    PERFORMER "Luv'"
    ISRC 000000000000
    INDEX 00 49:11:70
    INDEX 01 49:12:55
  TRACK 17 AUDIO
    TITLE "Shoes Off (Botts On)"
    PERFORMER "Luv'"
    ISRC 000000000000
    INDEX 00 52:16:32
    INDEX 01 52:17:20
  TRACK 18 AUDIO
    TITLE "My Number One"
    PERFORMER "Luv'"
    ISRC 000000000000
    INDEX 00 55:24:52
    INDEX 01 55:25:07
  TRACK 19 AUDIO
    TITLE "Who Do You Wanna Be"
    PERFORMER "Luv'"
    ISRC 000000000000
    INDEX 00 58:36:02
    INDEX 01 58:36:50
  TRACK 20 AUDIO
    TITLE "Megamix"
    PERFORMER "Luv'"
    ISRC 000000000000
    INDEX 00 62:18:55
    INDEX 01 62:19:20
[Профиль] [ЛС]

Создавать темы 13-Авг-2015 10:44 (спустя 7 месяцев 20 дней)

Топик был перенесен из форума Зарубежная в форум Technopop, Eurodance, Disco
sergej644
 
Кто просматривает тему:

Показать сообщения:    

Текущее время: Сегодня 20:22

Часовой пояс: GMT



Вы не можете начинать темы
Вы не можете отвечать на сообщения
Вы не можете редактировать свои сообщения
Вы не можете удалять свои сообщения
Вы не можете голосовать в опросах
Вы не можете прикреплять файлы к сообщениям
Вы не можете скачивать файлы