Louna - Нашествие 2015 (2015) WEBRip 720p

 
Автор Сообщение

Russian Mafia ®

Пол:

Стаж: 1 год 8 месяцев

Сообщений: 4247



Награды: 10 (Подробнее)

Top Releaser 3 (Количество: 1) Top Releaser 4 (Количество: 1) Mega Seeder 2 (Количество: 1)
Торрент-статистика

Создавать темы 24-Авг-2015 10:27

[Цитировать]

Информация о фильме
Название: Louna - Нашествие 2015
Год выхода: 2015
Жанр: Концерт
О фильме:
Выступление группы Louna на рок-фестивале Нашествие 03.07.2015 г.
Страна: Россия
Продолжительность: 00:39:06
Файл
Качество: WEBRip 720p
Видео: MPEG-4 AVC, 2127 Кбит/с, 1280x720, 29.97 кадр/с
Звук: AAC, 2 ch, 126 Кбит/с

Треклист:

01. Мой рок-н-ролл
02. Бойцовский клуб
03. Штурмуя небеса
04. Ночь, дорога и рок
05. С тобой
06. Мама
07. Дорогой бойца
08. Сделай громче

MediaInfo:

General
Complete name : G:Louna - Нашествие 2015 FilmRus.mp4
Format : MPEG-4
Format profile : Base Media
Codec ID : isom
File size : 632 MiB
Duration : 39mn 6s
Overall bit rate : 2 260 Kbps
Writing application : Lavf55.33.100
Video #1
ID : 1
Format : AVC
Format/Info : Advanced Video Codec
Format profile : Main@L3.1
Format settings, CABAC : Yes
Format settings, ReFrames : 3 frames
Codec ID : avc1
Codec ID/Info : Advanced Video Coding
Duration : 39mn 5s
Duration_FirstFrame : -33ms
Bit rate : 2 127 Kbps
Width : 1 280 pixels
Height : 720 pixels
Display aspect ratio : 16:9
Frame rate mode : Variable
Frame rate : 29.970 fps
Minimum frame rate : 29.970 fps
Maximum frame rate : 29.990 fps
Color space : YUV
Chroma subsampling : 4:2:0
Bit depth : 8 bits
Scan type : Progressive
Bits/(Pixel*Frame) : 0.077
Stream size : 595 MiB (94%)
Audio #2
ID : 2
Format : AAC
Format/Info : Advanced Audio Codec
Format profile : LC
Codec ID : 40
Duration : 39mn 6s
Bit rate mode : Constant
Bit rate : 126 Kbps
Channel(s) : 2 channels
Channel positions : Front: L R
Sampling rate : 44.1 KHz
Compression mode : Lossy
Stream size : 35.1 MiB (6%)

Скриншоты


[Профиль] [ЛС]
Кто просматривает тему:

Показать сообщения:    

Текущее время: Сегодня 12:32

Часовой пояс: GMT



Вы не можете начинать темы
Вы не можете отвечать на сообщения
Вы не можете редактировать свои сообщения
Вы не можете удалять свои сообщения
Вы не можете голосовать в опросах
Вы не можете прикреплять файлы к сообщениям
Вы не можете скачивать файлы