(Heavy Metal) Lordi - Scare Force One - 2014 [FLAC, image+.cue, lossless]

 
Автор Сообщение

sergej644 ®

Пол:

Стаж: 4 года 11 месяцев

Сообщений: 6043

Откуда: Soviet Union



Награды: Нет

Торрент-статистика

Создавать темы 15-Ноя-2014 20:48

[Цитировать]

-Lordi / Scare Force One-- Год издания: 2014
Страна: Finland
Жанр: Heavy Metal
Продолжительность: 00:48:09-Лейбл издания: AFM Records
Страна-выпуска диска: Russia
Номер по каталогу: FO1106CD
Формат: FLAC
Битрейт аудио: lossless
Тип рипа: image+.cue
Наличие сканов в содержимом раздачи: да
-

Трэклист

01. Arm Your Doors And Cross Check (01:35)
02. Scare Force One (04:58)
03. How To Slice A Whore (02:47)
04. Hell Sent In The Clowns (04:20)
05. House Of Ghost (04:12)
06. Monster Is My Name (03:34)
07. Cadaver Love (03:51)
08. Amen's Lament To Ra II (01:10)
09. Nailed By The Hammer Of Frankenstein (03:20)
10. The United Rocking Dead (05:46)
11. She's A Demon (05:37)
12. Hella's Kitchen (01:10)
13. Sir, Mr. Presideat, Sir! (05:44)

Лог создания рипа

Exact Audio Copy V1.0 beta 3 from 29. August 2011
EAC extraction logfile from 8. November 2014, 7:04
Lordi / Scare Force One (FO1106CD)
Used drive  : PLEXTOR BD-R   PX-B940SA   Adapter: 5  ID: 0
Read mode               : Secure
Utilize accurate stream : Yes
Defeat audio cache      : Yes
Make use of C2 pointers : No
Read offset correction                      : 667
Overread into Lead-In and Lead-Out          : No
Fill up missing offset samples with silence : Yes
Delete leading and trailing silent blocks   : No
Null samples used in CRC calculations       : Yes
Used interface                              : Installed external ASPI interface
Used output format              : User Defined Encoder
Selected bitrate                : 128 kBit/s
Quality                         : High
Add ID3 tag                     : Yes
Command line compressor         : G:\Program Files (x86)\Exact Audio Copy\Flac\flac.exe
Additional command line options : -V -8 -T "Date=%year%" -T "Genre=%genre%" %source%
TOC of the extracted CD
     Track |   Start  |  Length  | Start sector | End sector
    ---------------------------------------------------------
        1  |  0:00.00 |  1:35.74 |         0    |     7198
        2  |  1:35.74 |  4:58.08 |      7199    |    29556
        3  |  6:34.07 |  2:47.62 |     29557    |    42143
        4  |  9:21.69 |  4:20.36 |     42144    |    61679
        5  | 13:42.30 |  4:12.05 |     61680    |    80584
        6  | 17:54.35 |  3:34.60 |     80585    |    96694
        7  | 21:29.20 |  3:51.33 |     96695    |   114052
        8  | 25:20.53 |  1:10.57 |    114053    |   119359
        9  | 26:31.35 |  3:20.11 |    119360    |   134370
       10  | 29:51.46 |  5:46.08 |    134371    |   160328
       11  | 35:37.54 |  5:37.12 |    160329    |   185615
       12  | 41:14.66 |  1:10.25 |    185616    |   190890
       13  | 42:25.16 |  5:44.44 |    190891    |   216734
Range status and errors
Selected range
     Filename D:\MUSIC\Lordi - Scare Force One (FO1106CD).wav
     Peak level 97.6 %
     Extraction speed 2.6 X
     Range quality 100.0 %
     Test CRC 1D57CAFF
     Copy CRC 1D57CAFF
     Copy OK
No errors occurred
AccurateRip summary
Track  1  not present in database
Track  2  not present in database
Track  3  not present in database
Track  4  not present in database
Track  5  not present in database
Track  6  not present in database
Track  7  not present in database
Track  8  not present in database
Track  9  not present in database
Track 10  not present in database
Track 11  not present in database
Track 12  not present in database
Track 13  not present in database
None of the tracks are present in the AccurateRip database
End of status report
==== Log checksum E034FFE3A325AF8655A15B84DEEC43D31EAAFBEA2433AFD497486B678DE19AFD ====

Индексная карта (non-compilant .cue)

REM GENRE Metal
REM DATE 2014
REM DISCID BF0B490D
REM COMMENT "ExactAudioCopy v1.0b3"
PERFORMER "Lordi"
TITLE "Scare Force One (FO1106CD)"
FILE "Lordi - Scare Force One (FO1106CD).flac" WAVE
  TRACK 01 AUDIO
    TITLE "Arm Your Doors And Cross Check"
    PERFORMER "Lordi"
    INDEX 01 00:00:00
  TRACK 02 AUDIO
    TITLE "Scare Force One"
    PERFORMER "Lordi"
    INDEX 01 01:35:74
  TRACK 03 AUDIO
    TITLE "How To Slice A Whore"
    PERFORMER "Lordi"
    INDEX 01 06:34:07
  TRACK 04 AUDIO
    TITLE "Hell Sent In The Clowns"
    PERFORMER "Lordi"
    INDEX 01 09:21:69
  TRACK 05 AUDIO
    TITLE "House Of Ghost"
    PERFORMER "Lordi"
    INDEX 01 13:42:30
  TRACK 06 AUDIO
    TITLE "Monster Is My Name"
    PERFORMER "Lordi"
    INDEX 01 17:54:35
  TRACK 07 AUDIO
    TITLE "Cadaver Love"
    PERFORMER "Lordi"
    INDEX 01 21:29:20
  TRACK 08 AUDIO
    TITLE "Amen's Lament To Ra II"
    PERFORMER "Lordi"
    INDEX 01 25:20:53
  TRACK 09 AUDIO
    TITLE "Nailed By The Hammer Of Frankenstein"
    PERFORMER "Lordi"
    INDEX 01 26:31:35
  TRACK 10 AUDIO
    TITLE "The United Rocking Dead"
    PERFORMER "Lordi"
    INDEX 01 29:51:46
  TRACK 11 AUDIO
    TITLE "She's A Demon"
    PERFORMER "Lordi"
    INDEX 01 35:37:54
  TRACK 12 AUDIO
    TITLE "Hella's Kitchen"
    PERFORMER "Lordi"
    INDEX 01 41:14:66
  TRACK 13 AUDIO
    TITLE "Sir, Mr. Presideat, Sir!"
    PERFORMER "Lordi"
    INDEX 01 42:25:16
-Не забываем говорить
[Профиль] [ЛС]
Показать сообщения:    

Текущее время: Сегодня 20:29

Часовой пояс: GMT



Вы не можете начинать темы
Вы не можете отвечать на сообщения
Вы не можете редактировать свои сообщения
Вы не можете удалять свои сообщения
Вы не можете голосовать в опросах
Вы не можете прикреплять файлы к сообщениям
Вы не можете скачивать файлы