Linkin Park - Until It\'s Gone (Fandom Awards 2014) [2014, Alternative, HDTV 1080i]

 
Автор Сообщение

reversefile ®

Пол:

Стаж: 4 года 5 месяцев

Сообщений: 842

Откуда: ReverseFile.org



Награды: Нет

Торрент-статистика

Создавать темы 11-Авг-2014 18:53

[Цитировать]

Linkin Park - Until It's Gone (Fandom Awards 2014) -Жанр: Alternative
Продолжительность: 00:04:03
Год выпуска: 2014-Качество: HDTV 1080i
Контейнер: TS
Видео кодек: MPEG2
Аудио кодек: AC3
Видео: MPEG2, 1920x1080, 15.3 Mbps, 29.970 fps
Аудио: AC3, 384 Kbps, 48.0 KHz, 2 channels-Credits to Angel
-

Отчёт MediaInfo

GeneralID : 1 (0x1)Complete name : D:\Linkin Park - Until It's Gone (Fandom Awards 2014) 1080i HDTV.tsFormat : MPEG-TSFile size : 478 MiBDuration : 4mn 3sOverall bit rate mode : VariableOverall bit rate : 16.5 Mbps
VideoID : 6411 (0x190B)Menu ID : 1 (0x1)Format : MPEG VideoFormat version : Version 2Format profile : Main@HighFormat settings, BVOP : YesFormat settings, Matrix : CustomFormat settings, GOP : M=3, N=15Codec ID : 2Duration : 4mn 2sBit rate mode : VariableBit rate : 15.3 MbpsMaximum bit rate : 16.0 MbpsWidth : 1 920 pixelsHeight : 1 080 pixelsDisplay aspect ratio : 16:9Frame rate : 29.970 fpsColor space : YUVChroma subsampling : 4:2:0Bit depth : 8 bitsScan type : InterlacedScan order : Top Field FirstCompression mode : LossyBits/(Pixel*Frame) : 0.246Time code of first frame : 00:00:00;00Time code source : Group of pictures headerStream size : 443 MiB (93%)
AudioID : 6412 (0x190C)Menu ID : 1 (0x1)Format : AC-3Format/Info : Audio Coding 3Mode extension : CM (complete main)Format settings, Endianness : BigCodec ID : 129Duration : 4mn 2sBit rate mode : ConstantBit rate : 384 KbpsChannel(s) : 2 channelsChannel positions : Front: L RSampling rate : 48.0 KHzBit depth : 16 bitsCompression mode : LossyDelay relative to video : 23msStream size : 11.1 MiB (2%)Language : English
Text #1ID : 6411 (0x190B)-CC1Menu ID : 1 (0x1)Format : EIA-608Muxing mode : A/53 / DTVCC TransportMuxing mode, more info : Muxed in Video #1Duration : 4mn 2sBit rate mode : ConstantStream size : 0.00 Byte (0%)
Text #2ID : 6411 (0x190B)-1Menu ID : 1 (0x1)Format : EIA-708Muxing mode : A/53 / DTVCC TransportMuxing mode, more info : Muxed in Video #1Duration : 4mn 2sBit rate mode : ConstantStream size : 0.00 Byte (0%)

Скриншоты

[Профиль] [ЛС]
Показать сообщения:    

Текущее время: Сегодня 18:50

Часовой пояс: GMT



Вы не можете начинать темы
Вы не можете отвечать на сообщения
Вы не можете редактировать свои сообщения
Вы не можете удалять свои сообщения
Вы не можете голосовать в опросах
Вы не можете прикреплять файлы к сообщениям
Вы не можете скачивать файлы