Linkin Park - Until It's Gone (2014) HDTV [1080i]

 
Автор Сообщение

sergej644 ®

Пол:

Стаж: 4 года 11 месяцев

Сообщений: 6045

Откуда: Soviet Union



Награды: Нет

Торрент-статистика

Создавать темы 02-Авг-2014 20:34

[Цитировать]

-Linkin Park - Until It's Gone (2014) HDTV [1080i]- Исполнитель: Linkin Park
Год выпуска: 2014
Жанр: Rock
Продолжительность: 00:04:58
Описание: Видеоклип группы Linkin Park на композицию «Until It's Gone»
Качество видео: HDTV
Видеокодек: MPEG-TS AVC/H.264
Битрейт видео: ~10,1 Мбит/с
Размер кадра: 1920x1080 (16:9), 25,000 кадров/с
Аудиокодек: AC3, 6 ch,
Битрейт аудио: 384 Кбит/с

MediaInfo:

Полное имя : Linkin Park - Until It`s Gone.ts
Формат : MPEG-TS
Размер файла : 307 Мбайт
Продолжительность : 3 м. 53 с.
Режим общего битрейта : Переменный
Общий поток : 11,0 Мбит/сек
Видео
Идентификатор : 70 (0x46)
Идентификатор меню : 1 (0x1)
Формат : AVC
Формат/Информация : Advanced Video Codec
Профиль формата : [url=mailto:Main@L4.0]Main@L4.0[/url]
Параметр CABAC формата : Да
Параметр ReFrames формата : 4 кадра
Идентификатор кодека : 27
Продолжительность : 3 м. 53 с.
Битрейт : 10,1 Мбит/сек
Ширина : 1920 пикселей
Высота : 1080 пикселей
Соотношение сторон : 16:9
Частота кадров : 25,000 кадров/сек
Цветовое пространство : YUV
Субдискретизация насыщенности : 4:2:0
Битовая глубина : 8 бит
Тип развёртки : Чересстрочная
Порядок развёртки : Верхнее поле первое
Бит/(Пиксели*Кадры) : 0.195
Размер потока : 281 Мбайт (91%)
Основные цвета : BT.709
Характеристики трансфера : BT.709
Коэффициенты матрицы : BT.709
Аудио
Идентификатор : 69 (0x45)
Идентификатор меню : 1 (0x1)
Формат : AC-3
Формат/Информация : Audio Coding 3
Расширение режима : CM (complete main)
Параметр Endianness формата : Big
Идентификатор кодека : 6
Продолжительность : 3 м. 53 с.
Вид битрейта : Постоянный
Битрейт : 384 Кбит/сек
Каналы : 6 каналов
Расположение каналов : Front: L C R, Side: L R, LFE
Частота : 48,0 КГц
Битовая глубина : 16 бит
Метод сжатия : С потерями
Задержка видео : 20 мс.
Размер потока : 10,7 Мбайт (3%)
Язык : English
Язык, дополнительно : Clean effects
Скриншоты:
[Профиль] [ЛС]

Создавать темы 13-Авг-2015 12:08 (спустя 1 год)

Топик был перенесен из форума Видеоклипы в форум Зарубежные клипы
sergej644
 
Показать сообщения:    

Текущее время: Сегодня 11:53

Часовой пояс: GMT



Вы не можете начинать темы
Вы не можете отвечать на сообщения
Вы не можете редактировать свои сообщения
Вы не можете удалять свои сообщения
Вы не можете голосовать в опросах
Вы не можете прикреплять файлы к сообщениям
Вы не можете скачивать файлы