Linkin Park • Rock On The Range Festival [2015, Alternative Rock, HDTV 1080i]

 
Автор Сообщение

sergej644 ®

Пол:

Стаж: 4 года 11 месяцев

Сообщений: 6042

Откуда: Soviet Union



Награды: Нет

Торрент-статистика

Создавать темы 21-Май-2015 14:23

[Цитировать]





Жанр: Alternative Rock
Продолжительность: 01:30:41
Год выпуска: 2015
Качество: HDTV 1080i
Контейнер: TS
Видео кодек: MPEG2
Аудио кодек: AC3
Видео: MPEG2 Video 1920x1080 29.97fps 14.1 Mbps
Аудио: Dolby AC3 48000Hz 6ch 384kbps

Треклист

01. Papercut (2015 intro)
02. Rebellion
03. Given Up
04. One Step Closer
05. A Line in the Sand
06. From the Inside
07. Runaway (Short)
08. Wastelands
09. Castle of Glass (Live Experience with 'A Thousand Suns' interlude)
10. Leave Out All the Rest / Shadow of the Day / Iridescent (Ballad Medley)
11. Robot Boy
12. Joe Hahn Solo
13. New Divide
14. Breaking the Habit (2015 debut)
15. Darker Than Blood (live debut)
16. Burn It Down
17. Wretches and Kings / Remember the Name / Skin to Bone
18. Numb (Numb/Encore intro)
19. In the End
20. Faint
21. Waiting for the End
22. What I've Done
23. Bleed It Out

Отчёт MediaInfo / BDInfo

General
ID                             : 1 (0x1)
Complete name                  : G:\закачки\Linkin Park - Rock On The Range Festival 2015.ts
Format                         : MPEG-TS
File size                      : 9.63 GiB
Duration                       : 1h 30mn
Overall bit rate mode          : Variable
Overall bit rate               : 15.2 Mbps
Video
ID                             : 6081 (0x17C1)
Menu ID                        : 1 (0x1)
Format                         : MPEG Video
Format version                 : Version 2
Format profile                 : Main@High
Format settings, BVOP          : Yes
Format settings, Matrix        : Default
Format settings, GOP           : Variable
Format settings, picture struc : Frame
Codec ID                       : 2
Duration                       : 1h 30mn
Bit rate mode                  : Variable
Bit rate                       : 14.1 Mbps
Maximum bit rate               : 18.0 Mbps
Width                          : 1 920 pixels
Height                         : 1 080 pixels
Display aspect ratio           : 16:9
Frame rate                     : 29.970 fps
Color space                    : YUV
Chroma subsampling             : 4:2:0
Bit depth                      : 8 bits
Scan type                      : Interlaced
Scan order                     : Top Field First
Compression mode               : Lossy
Bits/(Pixel*Frame)             : 0.226
Time code of first frame       : 00:00:00;00
Time code source               : Group of pictures header
Stream size                    : 8.91 GiB (93%)
Audio
ID                             : 6082 (0x17C2)
Menu ID                        : 1 (0x1)
Format                         : AC-3
Format/Info                    : Audio Coding 3
Mode extension                 : CM (complete main)
Format settings, Endianness    : Big
Codec ID                       : 129
Duration                       : 1h 30mn
Bit rate mode                  : Constant
Bit rate                       : 384 Kbps
Channel(s)                     : 6 channels
Channel positions              : Front: L C R, Side: L R, LFE
Sampling rate                  : 48.0 KHz
Bit depth                      : 16 bits
Compression mode               : Lossy
Delay relative to video        : 24ms
Stream size                    : 249 MiB (3%)
Language                       : English
[Профиль] [ЛС]
Показать сообщения:    

Текущее время: Сегодня 18:17

Часовой пояс: GMT



Вы не можете начинать темы
Вы не можете отвечать на сообщения
Вы не можете редактировать свои сообщения
Вы не можете удалять свои сообщения
Вы не можете голосовать в опросах
Вы не можете прикреплять файлы к сообщениям
Вы не можете скачивать файлы