Linkin Park - Rock Am Ring [2014 г., Alternative Rock, HDTV]

 
Автор Сообщение

sergej644 ®

Пол:

Стаж: 4 года 11 месяцев

Сообщений: 6040

Откуда: Soviet Union



Награды: Нет

Торрент-статистика

Создавать темы 14-Июн-2014 11:02

[Цитировать]

-Linkin Park - Rock Am Ring

Страна: USA
Жанр: Alternative Rock
Год выпуска: 2014
Продолжительность: 01:41:00
Перевод: Не требуется


Новейшее выступление Linkin Park в качестве хедлайнеров 7 июня на фесте Rock Am Ring. Больше добавить нечего - это надо видеть, а еще лучше там быть. Собственная запись с канала eins|plus 1 HD-

треклист

01.Catalyst / Requiem intro
02.Guilty Of The Shame
03.Given Up
04.Points Of Authority
05.One Step Closer
06.Blackout
07.Papercut
08.Runaway / Wastelands
09.Castle Of Glass Experience
10.Leave Out All The Rest / Shadow Of The Day / Iridiscent
11.Burn It Down
12.Wating For The End
13.Numb
14.In The End
15.Faint
Encore:
16.Until It's Gone
17.A Light That Never Comes
18.Lost In The Echo
19.Crawling / New Divide
20.What I've Done
21.Bleed It Out
-Качество: HDTV 720p
Контейнер: TS
Видео кодек: H.26x
Аудио кодек: AC3
Видео: MPEG-TS /AVC, 1280 x 720p, 16:9, 13 Mbps, 50.000 fps, 0.283 bit/pic
Аудио: MPEG Audio, 2 channels, 48.0 KHz, 192 Kbps
Аудио 1: MPEG Audio, 2 channels, 48.0 KHz, 192 Kbps
Аудио 2: AC-3, 2 channels, 48.0 KHz, 448 Kbps, 16 bits
Текст: Teletext, Germany
-

MI

General
ID                                       : 1039 (0x40F)
Complete name                            : D:\Torent files\Linkin Park - Rock Am Ring 2014.ts
Format                                   : MPEG-TS
File size                                : 10.4 GiB
Duration                                 : 1h 41mn
Overall bit rate mode                    : Variable
Overall bit rate                         : 14.6 Mbps
Video
ID                                       : 5421 (0x152D)
Menu ID                                  : 10377 (0x2889)
Format                                   : AVC
Format/Info                              : Advanced Video Codec
Format profile                           : High@L4.0
Format settings, CABAC                   : Yes
Format settings, ReFrames                : 4 frames
Format settings, GOP                     : M=8, N=32
Codec ID                                 : 27
Duration                                 : 1h 41mn
Bit rate                                 : 13.0 Mbps
Width                                    : 1 280 pixels
Height                                   : 720 pixels
Display aspect ratio                     : 16:9
Frame rate                               : 50.000 fps
Color space                              : YUV
Chroma subsampling                       : 4:2:0
Bit depth                                : 8 bits
Scan type                                : Progressive
Bits/(Pixel*Frame)                       : 0.283
Stream size                              : 9.26 GiB (89%)
Audio #1
ID                                       : 5422 (0x152E)
Menu ID                                  : 10377 (0x2889)
Format                                   : MPEG Audio
Format version                           : Version 1
Format profile                           : Layer 2
Codec ID                                 : 3
Duration                                 : 1h 41mn
Bit rate mode                            : Constant
Bit rate                                 : 192 Kbps
Channel count                            : 2 channels
Sampling rate                            : 48.0 KHz
Compression mode                         : Lossy
Delay relative to video                  : -1s 267ms
Stream size                              : 140 MiB (1%)
Language                                 : German
Audio #2
ID                                       : 5423 (0x152F)
Menu ID                                  : 10377 (0x2889)
Format                                   : MPEG Audio
Format version                           : Version 1
Format profile                           : Layer 2
Codec ID                                 : 3
Duration                                 : 1h 41mn
Bit rate mode                            : Constant
Bit rate                                 : 192 Kbps
Channel count                            : 2 channels
Sampling rate                            : 48.0 KHz
Compression mode                         : Lossy
Delay relative to video                  : -1s 267ms
Stream size                              : 140 MiB (1%)
Audio #3
ID                                       : 5426 (0x1532)
Menu ID                                  : 10377 (0x2889)
Format                                   : AC-3
Format/Info                              : Audio Coding 3
Mode extension                           : CM (complete main)
Format settings, Endianness              : Big
Codec ID                                 : 6
Duration                                 : 1h 41mn
Bit rate mode                            : Constant
Bit rate                                 : 448 Kbps
Channel count                            : 2 channels
Channel positions                        : Front: L R
Sampling rate                            : 48.0 KHz
Bit depth                                : 16 bits
Compression mode                         : Lossy
Delay relative to video                  : -1s 235ms
Stream size                              : 326 MiB (3%)
Language                                 : German
Text
ID                                       : 5424 (0x1530)-100
Menu ID                                  : 10377 (0x2889)
Format                                   : Teletext
Language                                 : German
Menu
ID                                       : 5420 (0x152C)
Menu ID                                  : 10377 (0x2889)
Duration                                 : 1h 41mn
List                                     : 5421 (0x152D) (AVC) / 5422 (0x152E) (MPEG Audio, German) / 5423 (0x152F) (MPEG Audio) / 5424 (0x1530) () / 5426 (0x1532) (AC-3, German) / 370 (0x172) () / 2171 (0x87B) () / 5425 (0x1531) (DVB Subtitle)
Language                                 :  / German /  /  / German
-

Скриншоты

--
[Профиль] [ЛС]
Показать сообщения:    

Текущее время: Сегодня 20:44

Часовой пояс: GMT



Вы не можете начинать темы
Вы не можете отвечать на сообщения
Вы не можете редактировать свои сообщения
Вы не можете удалять свои сообщения
Вы не можете голосовать в опросах
Вы не можете прикреплять файлы к сообщениям
Вы не можете скачивать файлы