Linkin Park - Live at O2 World: Berlin (2014) HDTVRip 1080p

 
Автор Сообщение

достали все ®

Пол:

Стаж: 1 год 8 месяцев

Сообщений: 6571



Награды: 12 (Подробнее)

Mega Seeder 5 (Количество: 1) Mega Seeder 2 (Количество: 1) Top Releaser 3 (Количество: 1)
Торрент-статистика

Создавать темы 27-Ноя-2015 04:22

[Цитировать]

Информация о концерте
Название: Live at O2 World: Berlin
Исполнитель: Linkin Park
Год выхода: 2014
Жанр: Rock, Alternative
Страна: США, Германия
Продолжительность: 01:41:00
О концерте:
Концерт легендарной американской альтернативной рок-группы, в Берлине, на стадионе O2 World
Файл
Кодек: h.264
Качество: UHDTVRip 1080p
Видео: 1920x1080 пикселей, 6677 кбит/сек, 50.000 кадра(ов)/сек
Звук: Английский, MPEG, 2.0, 48.0 кГц
Семпл

Скриншоты

Трек лист

01. Mashup Intro #2
02. Guilty All The Same
03. Given Up
04. Points Of Authority
05. One Step Closer
06. Blackout
07. Papercut
08. Rebellion
09. Runaway
10. Wastelands
11. Castle Of Glass
12. LOATR/SOTD/Iridescent
13. Robot Boy
14. Joe Solo Medley
15. Burn It Down
16. Waiting For The End
17. Final Masquerade
18. Mike Solo Medley
19. Numb
20. In The End
21. Faint
22. Lost In The Echo
23. New Divide
24. Crawling
25. Until It's Gone
26. What I've Done
27. Bleed It Out

Краткая информация об исполнителе

Linkin Park американская альтернативная рок-группа. Основана в 1996 году под названием Xero. Существуя с 2000 года под названием Linkin Park, группа два раза удостоилась награды «Грэмми». Группа обрела успех благодаря дебютному альбому 2000 года под названием Hybrid Theory, проданному тиражом в 27 миллионов экземпляров[4] (в 2010 году он обрёл «бриллиантовый» статус, присуждаемый RIAA). Следующий студийный альбом, Meteora, повторил, хоть и не превзошёл успех предыдущего, лидируя в 2003 году в чарте Billboard 200. В общей сложности альбомы группы разошлись общим тиражом около 73 миллионов экземпляров.

Media Info

Video
ID : 1
Format : AVC
Format/Info : Advanced Video Codec
Format profile : High@L4.1
Format settings, CABAC : Yes
Format settings, ReFrames : 4 frames
Codec ID : V_MPEG4/ISO/AVC
Duration : 1h 41mn
Bit rate : 6 677 Kbps
Width : 1 920 pixels
Height : 1 080 pixels
Display aspect ratio : 16:9
Frame rate mode : Constant
Frame rate : 50.000 fps
Color space : YUV
Chroma subsampling : 4:2:0
Bit depth : 8 bits
Scan type : Progressive
Bits/(Pixel*Frame) : 0.064
Stream size : 4.74 GiB (95%)
Default : Yes
Forced : No
Audio
ID : 2
Format : MPEG Audio
Format version : Version 1
Format profile : Layer 2
Codec ID : A_MPEG/L2
Codec ID/Hint : MP2
Duration : 1h 41mn
Bit rate mode : Constant
Bit rate : 192 Kbps
Channel(s) : 2 channels
Sampling rate : 48.0 KHz
Compression mode : Lossy
Delay relative to video : 23ms
Stream size : 140 MiB (3%)
Default : Yes
Forced : No
[Профиль] [ЛС]
Показать сообщения:    

Текущее время: Сегодня 04:24

Часовой пояс: GMT



Вы не можете начинать темы
Вы не можете отвечать на сообщения
Вы не можете редактировать свои сообщения
Вы не можете удалять свои сообщения
Вы не можете голосовать в опросах
Вы не можете прикреплять файлы к сообщениям
Вы не можете скачивать файлы