Linkin Park • Final Masquerade [MTV Live HD][2014, Alternative Rock, HDTV 1080i]

 
Автор Сообщение

reversefile ®

Пол:

Стаж: 4 года 5 месяцев

Сообщений: 842

Откуда: ReverseFile.org



Награды: Нет

Торрент-статистика

Создавать темы 11-Авг-2014 18:52

[Цитировать]

Linkin Park • Final Masquerade
Жанр: Alternative Rock
Продолжительность: 04:02
Год выпуска: 2014
Качество: HDTV 1080i
Контейнер: TS
Видео: AVC | 1920x1080 | ~10.1 Mbps | 25.000 fps
Аудио: AC-3 | 384 Kbps | 6 ch | 48.0 KHzSource >> [MTV Live HD]

Отчёт MediaInfo / BDInfo

GeneralID : 16 (0x10)Complete name : Linkin Park - Final Masquerade [MTV Live HD].tsFormat : MPEG-TSFile size : 318 MiBDuration : 4mn 2sOverall bit rate mode : VariableOverall bit rate : 11.0 Mbps
VideoID : 1011 (0x3F3)Menu ID : 1 (0x1)Format : AVCFormat/Info : Advanced Video CodecFormat profile : Main@L4.0Format settings, CABAC : YesFormat settings, ReFrames : 4 framesCodec ID : 27Duration : 4mn 2sBit rate : 10.1 MbpsWidth : 1 920 pixelsHeight : 1 080 pixelsDisplay aspect ratio : 16:9Frame rate : 25.000 fpsColor space : YUVChroma subsampling : 4:2:0Bit depth : 8 bitsScan type : InterlacedScan order : Top Field FirstBits/(Pixel*Frame) : 0.195Stream size : 291 MiB (91%)Color primaries : BT.709Transfer characteristics : BT.709Matrix coefficients : BT.709
AudioID : 1013 (0x3F5)Menu ID : 1 (0x1)Format : AC-3Format/Info : Audio Coding 3Mode extension : CM (complete main)Format settings, Endianness : BigCodec ID : 6Duration : 4mn 2sBit rate mode : ConstantBit rate : 384 KbpsChannel(s) : 6 channelsChannel positions : Front: L C R, Side: L R, LFESampling rate : 48.0 KHzBit depth : 16 bitsCompression mode : LossyDelay relative to video : 55msStream size : 11.1 MiB (3%)Language : EnglishLanguage, more info : Clean effects

Скриншоты

[Профиль] [ЛС]
Показать сообщения:    

Текущее время: Сегодня 12:47

Часовой пояс: GMT



Вы не можете начинать темы
Вы не можете отвечать на сообщения
Вы не можете редактировать свои сообщения
Вы не можете удалять свои сообщения
Вы не можете голосовать в опросах
Вы не можете прикреплять файлы к сообщениям
Вы не можете скачивать файлы