LEGO Friends: Лучшие подружки / LEGO Friends: Girlz 4 Life (2016) BDRip 1080p от -merci- | P

 
Автор Сообщение

достали все ®

Пол:

Стаж: 1 год 8 месяцев

Сообщений: 6545



Награды: 12 (Подробнее)

Mega Releaser 2 (Количество: 1) Mega Seeder 1 (Количество: 1) Top Releaser 3 (Количество: 1)
Торрент-статистика

Создавать темы 04-Фев-2016 04:58

[Цитировать]

Информация о фильме
Название: LEGO Friends: Лучшие подружки
Оригинальное название: LEGO Friends: Girlz 4 Life
Год выхода: 2016
Жанр: МУльтфильм, семейный
Страна: США, Warner Bros
Продолжительность: 01:19:43
Озвучивание: Профессиональное (многоголосное)
Русские субтитры: нет
Режиссеры: Christian Cheshire / Кристиан Чесхаер, Thomas J. Mikkelsen / Томас Микелсен, Darren Campbell / Дарен Сэмбл
О фильме:
Красочный полнометражный мультфильм по мотивам популярного мультсериала LEGO «Подружки из Хартлейк Сити». «LEGO Friends: Лучшие подружки» – история приключений пяти очень разных, но очень дружных девочек, живущих в лего-городке. У каждой из них есть свое увлечение: Миа, например, обожает животных, Эмма самая спортивная, Оливия – настоящий изобретатель, Андреа танцует и поет, а Стефани – трудолюбивая девушка, которая любит готовить. Объединяет их не только крепкая дружба, но и общее дело – у девочек есть своя музыкальная группа. Однажды подруги узнают, что в Хартлейк Сити с концертом приезжает их любимая певица Ливи, и решают во что что бы то ни стало познакомиться с ней и показать звезде свои песни. Что ж, для этих девчонок нет ничего невозможного, несмотря на то, что у них есть серьезные конкуренты...
Официальный сайт / Лицензия
Файл
Кодек: h.264
Качество: BDRip 1080p
Формат: MKV
Видео: MPEG4-AVC, High@L4.1, 1920x1080 (16:9), 2 152 Kbps, 23.976 fps
Звук #1: AC3 2.0, 192 kbps 48.0 KHz (русский, многоголосый)
Звук #2: DTS 5.1, 1 509 kbps 48.0 KHz (английский, оригинальный)
Субтитры: нет

MI

LEGO.Friends.Girlz.4.Life.2016.1080p.BluRay.x264.-merci-.mkv
Format : Matroska
Format version : Version 2
File size : 2.15 GiB
Duration : 1h 19mn
Overall bit rate : 3 855 Kbps
Encoded date : UTC 2016-02-03 19:12:40
Writing application : mkvmerge v5.8.0 ('No Sleep / Pillow') built on Sep 2 2012 15:37:04
Writing library : libebml v1.2.3 + libmatroska v1.3.0
Video
ID : 1
Format : AVC
Format/Info : Advanced Video Codec
Format profile : High@L4.1
Format settings, CABAC : Yes
Format settings, ReFrames : 4 frames
Codec ID : V_MPEG4/ISO/AVC
Duration : 1h 19mn
Bit rate : 2 152 Kbps
Width : 1 920 pixels
Height : 1 080 pixels
Display aspect ratio : 16:9
Frame rate mode : Constant
Frame rate : 23.976 fps
Color space : YUV
Chroma subsampling : 4:2:0
Bit depth : 8 bits
Scan type : Progressive
Bits/(Pixel*Frame) : 0.043
Stream size : 1.16 GiB (54%)
Title : LEGO.Friends.Girlz.4.Life.2016.1080p.BluRay.x264.-rovers
Writing library : x264 core 148 r2638 7599210
Encoding settings : cabac=1 / ref=4 / deblock=1:-1:-1 / analyse=0x3:0x133 / me=umh / subme=9 / psy=1 / psy_rd=1.00:0.15 / mixed_ref=1 / me_range=24 / chroma_me=1 / trellis=2 / 8x8dct=1 / cqm=0 / deadzone=21,11 / fast_pskip=0 / chroma_qp_offset=-6 / threads=12 / lookahead_threads=1 / sliced_threads=0 / nr=0 / decimate=1 / interlaced=0 / bluray_compat=0 / constrained_intra=0 / bframes=3 / b_pyramid=2 / b_adapt=2 / b_bias=0 / direct=3 / weightb=1 / open_gop=0 / weightp=2 / keyint=240 / keyint_min=23 / scenecut=40 / intra_refresh=0 / rc_lookahead=60 / rc=2pass / mbtree=1 / bitrate=2152 / ratetol=1.0 / qcomp=0.60 / qpmin=0 / qpmax=69 / qpstep=4 / cplxblur=20.0 / qblur=0.5 / vbv_maxrate=31250 / vbv_bufsize=31250 / nal_hrd=none / filler=0 / ip_ratio=1.40 / aq=1:1.00
Language : English
Default : Yes
Forced : No
Audio #1
ID : 2
Format : AC-3
Format/Info : Audio Coding 3
Mode extension : CM (complete main)
Format settings, Endianness : Big
Codec ID : A_AC3
Duration : 1h 19mn
Bit rate mode : Constant
Bit rate : 192 Kbps
Channel(s) : 2 channels
Channel positions : Front: L R
Sampling rate : 48.0 KHz
Compression mode : Lossy
Stream size : 110 MiB (5%)
Title : MVO
Language : Russian
Default : No
Forced : No
Audio #2
ID : 3
Format : DTS
Format/Info : Digital Theater Systems
Mode : 16
Format settings, Endianness : Big
Codec ID : A_DTS
Duration : 1h 19mn
Bit rate mode : Constant
Bit rate : 1 509 Kbps
Channel(s) : 6 channels
Channel positions : Front: L C R, Side: L R, LFE
Sampling rate : 48.0 KHz
Bit depth : 24 bits
Compression mode : Lossy
Stream size : 861 MiB (39%)
Title : Original
Language : English
Default : Yes
Forced : No
Menu
00:00:00.000 : en:00:00:00.000
00:11:01.452 : en:00:11:01.452
00:21:23.407 : en:00:21:23.407
00:30:23.655 : en:00:30:23.655
00:38:40.693 : en:00:38:40.693
00:49:24.628 : en:00:49:24.628
01:01:31.187 : en:01:01:31.187
01:15:01.455 : en:01:15:01.455

Скриншоты

Релиз от: -merci-
[Профиль] [ЛС]
Кто просматривает тему:

Показать сообщения:    

Текущее время: Сегодня 00:47

Часовой пояс: GMT



Вы не можете начинать темы
Вы не можете отвечать на сообщения
Вы не можете редактировать свои сообщения
Вы не можете удалять свои сообщения
Вы не можете голосовать в опросах
Вы не можете прикреплять файлы к сообщениям
Вы не можете скачивать файлы