(Hard Rock, Blues Rock)Led Zeppelin - Stairway To Heaven. The Best Of Blues And Ballads (2004) [FLAC, (image+cue), Lossless]

 
Автор Сообщение

sergej644 ®

Пол:

Стаж: 4 года 11 месяцев

Сообщений: 6043

Откуда: Soviet Union



Награды: Нет

Торрент-статистика

Создавать темы 13-Окт-2014 06:52

[Цитировать]

-Led Zeppelin - Stairway To Heaven. The Best Of Blues And Ballads (2004)-Год: 2004
Жанр: Hard Rock, Blues Rock
Продолжительность: 01:03:44
Кодек: FLAC (image+.cue + log)
Битрейт: Lossless
Треклист:
01. Thank You (3:42)
02. I Can't Quit You Baby (4:43)
03. Stairway To Heaven (8:02)
04. Tangerine (2:57)
05. You Shook Me (6:27)
06. No Quarter (7:00)
07. Since I've Been Loving You (7:19)
08. Black Mountain Side (2:06)
09. Babe I'm Gonna Leave You (6:41)
10. When The Levee Breaks (7:08)
11. The Rain Song (7:40)

Отчёт ЕАС:

Exact Audio Copy V0.99 prebeta 5 from 4. May 2009
Отчёт EAC об извлечении, выполненном 24. июня 2014, 19:22
Led Zeppelin / Stairway To Heaven. The Best Of Blues And Ballads
Дисковод: SlimtypeeSAU108   8   Adapter: 2  ID: 0
Режим чтения                 : Достоверность
Использование точного потока : Да
Отключение кэша аудио        : Да
Использование указателей C2  : Нет
Коррекция смещения при чтении                     : 6
Способность читать области Lead-in и Lead-out     : Нет
Заполнение пропущенных сэмплов тишиной            : Да
Удаление блоков с тишиной в начале и конце        : Нет
При вычислениях CRC использовались нулевые сэмплы : Да
Интерфейс                                         : Встроенный Win32-интерфейс для Win NT/2000
Выходной формат : Внутренние WAV-операции
Формат сэмплов  : 44.100 Гц; 16 бит; стерео
TOC извлечённого CD
     Трек |   Старт  | Длительность | Начальный сектор | Конечный сектор
    ---------------------------------------------------------------------
       1  |  0:00.00 |    3:41.59   |           0      |      16633
       2  |  3:41.59 |    4:43.09   |       16634      |      37867
       3  |  8:24.68 |    8:02.12   |       37868      |      74029
       4  | 16:27.05 |    2:56.54   |       74030      |      87283
       5  | 19:23.59 |    6:27.27   |       87284      |     116335
       6  | 25:51.11 |    7:00.13   |      116336      |     147848
       7  | 32:51.24 |    7:18.58   |      147849      |     180756
       8  | 40:10.07 |    2:05.60   |      180757      |     190191
       9  | 42:15.67 |    6:40.58   |      190192      |     220249
      10  | 48:56.50 |    7:07.43   |      220250      |     252317
      11  | 56:04.18 |    7:40.08   |      252318      |     286825
Характеристики диапазона извлечения и сообщения об ошибках
Выбранный диапазон
     Имя файла F:\Музыка\Led Zeppelin - Stairway To Heaven. The Best Of Blues And Ballads.wav
     Пиковый уровень 100.0 %
     Качество диапазона 100.0 %
     CRC теста 054C3A5B
     CRC копии 054C3A5B
     Копирование... OK
Ошибок не произошло
AccurateRip: сводка
Трек  1  точность не определена (достоверность 1)  [80AE2ABF], AccurateRip вернул [E18C3C9E]
Трек  2  точность не определена (достоверность 1)  [A51288F8], AccurateRip вернул [1FE7680A]
Трек  3  точность не определена (достоверность 1)  [F49611DC], AccurateRip вернул [AEF05ED0]
Трек  4  точность не определена (достоверность 1)  [B85B5EE0], AccurateRip вернул [102E8B5A]
Трек  5  точность не определена (достоверность 1)  [97054845], AccurateRip вернул [55AC562E]
Трек  6  точность не определена (достоверность 1)  [1B9B8E45], AccurateRip вернул [1A576907]
Трек  7  точность не определена (достоверность 2)  [426F0058], AccurateRip вернул [E7F0144A]
Трек  8  точность не определена (достоверность 2)  [FA9F2D76], AccurateRip вернул [D233C1AF]
Трек  9  точность не определена (достоверность 2)  [EA4888E2], AccurateRip вернул [59512DA2]
Трек 10  точность не определена (достоверность 2)  [7377DEDA], AccurateRip вернул [DCE134A2]
Трек 11  точность не определена (достоверность 2)  [3C5C5345], AccurateRip вернул [E08BEBF5]
Ни один трек не прошёл проверки на точность
В вашей базе может быть иной вариант штамповки диска
Конец отчёта

Отчёт auCDtect Task manager:

-----------------------
DON'T MODIFY THIS FILE
-----------------------
PERFORMER: auCDtect Task Manager, ver. 1.5.1RC6 build 1.5.1.7
Copyright (c) 2008-2010 y-soft. All rights reserved
http://y-soft.org
ANALYZER: auCDtect: CD records authenticity detector, version 0.8.2
Copyright (c) 2004 Oleg Berngardt. All rights reserved.
Copyright (c) 2004 Alexander Djourik. All rights reserved.
FILE: Led Zeppelin - Stairway To Heaven. The Best Of Blues And Ballads.flac
  Size: 398902817 Hash: 33502EE0FEA0DC7E0F1565878428BAA9 Accuracy: -m8
  Conclusion: CDDA 100%
  Signature: FC54A67F3D434D30F08922FDABD92E008C4BEB0C
Время раздачи: 24/7 (круглосуточно)-
[Профиль] [ЛС]
Показать сообщения:    

Текущее время: Сегодня 04:20

Часовой пояс: GMT



Вы не можете начинать темы
Вы не можете отвечать на сообщения
Вы не можете редактировать свои сообщения
Вы не можете удалять свои сообщения
Вы не можете голосовать в опросах
Вы не можете прикреплять файлы к сообщениям
Вы не можете скачивать файлы