Led Zeppelin - Led Zeppelin I - III (2014) 6CD, Super Deluxe Edition Box Set [FLAC|Lossless]<Rock, Acoustic Rock, Hard Rock>

 
Автор Сообщение

sergej644 ®

Пол:

Стаж: 4 года 11 месяцев

Сообщений: 6041

Откуда: Soviet Union



Награды: Нет

Торрент-статистика

Создавать темы 23-Дек-2014 23:55

[Цитировать]

-Led Zeppelin - Led Zeppelin I - III /Super Deluxe Edition Box Set/ (2014) 6CD- Страна-производитель диска: US
Жанр: Rock, Acoustic Rock, Hard Rock
Год издания: 2014
Издатель (лейбл): Atlantic/Swan Song
Номер по каталогу: ???
Аудиокодек: FLAC (*.flac)
Тип рипа: image+.cue
Битрейт аудио: lossless
Источник (релизер): Demonoid
Наличие сканов: Да
Продолжительность: 04:35:18-Описание: С выпуском 3 июня роскошных изданий "Led Zeppelin", "Led Zeppelin II" и "Led Zeppelin III", группа начинает обширную программу переиздания всех девяти студийных альбомов в хронологическом порядке, каждый обновленный и ремастированных с участием гитариста Джимми Пэйджа. LED ZEPPELIN также обещают своим поклонникам, что они обретут десятки неуслышанных студийных и живых записей. На каждом альбоме, наряду с основным ремастированным диском, выходит второй диск, состоящий полностью из невыпущенной музыки, связанной с основным альбомом.
Первые три альбома вышли в составе 2 LP (первый альбом - 3LP), двух CD, записи на цифровом носителе и роскошным буклетом (можно сказать книгой) с многочисленными фото.-

Led Zeppelin I

CD 1

Треклист:
01. Good Times, Bad Times (2:47)
02. Babe I'm Gonna Leave You (6:43)
03. You Shook Me (6:28)
04. Dazed and Confused (6:29)
05. Your Time Is Gonna Come (4:35)
06. Black Mountain Side (2:13)
07. Communication Breakdown (2:30)
08. I Can't Quit You Baby (4:43)
09. How Many More Times (8:30)
Продoлжитeльность -00:44:57

Содержание индексной карты (.CUE&#41;&#58;

REM GENRE Rock
REM DATE 2014
REM DISCID 820A8809
REM COMMENT "ExactAudioCopy v1.0b3"
PERFORMER "Led Zeppelin"
TITLE "Led Zeppelin I (Remastered Deluxe Edition)"
FILE "Led Zeppelin - Led Zeppelin I (CD1 Remastered Deluxe Edition).flac" WAVE
  TRACK 01 AUDIO
    TITLE "Good Times, Bad Times"
    PERFORMER "Led Zeppelin"
    INDEX 01 00:00:00
  TRACK 02 AUDIO
    TITLE "Babe I'm Gonna Leave You"
    PERFORMER "Led Zeppelin"
    INDEX 01 02:47:08
  TRACK 03 AUDIO
    TITLE "You Shook Me"
    PERFORMER "Led Zeppelin"
    INDEX 01 09:29:65
  TRACK 04 AUDIO
    TITLE "Dazed and Confused"
    PERFORMER "Led Zeppelin"
    INDEX 01 15:58:25
  TRACK 05 AUDIO
    TITLE "Your Time Is Gonna Come"
    PERFORMER "Led Zeppelin"
    INDEX 01 22:27:00
  TRACK 06 AUDIO
    TITLE "Black Mountain Side"
    PERFORMER "Led Zeppelin"
    INDEX 01 27:01:52
  TRACK 07 AUDIO
    TITLE "Communication Breakdown"
    PERFORMER "Led Zeppelin"
    INDEX 01 29:14:21
  TRACK 08 AUDIO
    TITLE "I Can't Quit You Baby"
    PERFORMER "Led Zeppelin"
    INDEX 01 31:44:36
  TRACK 09 AUDIO
    TITLE "How Many More Times"
    PERFORMER "Led Zeppelin"
    INDEX 01 36:27:15

Отчёт ЕАС&#58;

Exact Audio Copy V1.0 beta 3 from 29. August 2011
EAC extraction logfile from 5. June 2014, 14:17
Led Zeppelin / Led Zeppelin I (Remastered Deluxe Edition)
Used drive  : PIONEER BD-RW   BDR-206   Adapter: 5  ID: 0
Read mode               : Secure
Utilize accurate stream : Yes
Defeat audio cache      : Yes
Make use of C2 pointers : No
Read offset correction                      : 667
Overread into Lead-In and Lead-Out          : No
Fill up missing offset samples with silence : Yes
Delete leading and trailing silent blocks   : No
Null samples used in CRC calculations       : Yes
Used interface                              : Native Win32 interface for Win NT & 2000
Used output format              : User Defined Encoder
Selected bitrate                : 1024 kBit/s
Quality                         : High
Add ID3 tag                     : No
Command line compressor         : C:\Program Files (x86)\Exact Audio Copy\Flac\flac.exe
Additional command line options : -8 -V -T "ARTIST=%artist%" -T "TITLE=%title%" -T "ALBUM=%albumtitle%" -T "DATE=%year%" -T "TRACKNUMBER=%tracknr%" -T "GENRE=%genre%" -T "COMMENT=%comment%" -T "BAND=%albuminterpret%" -T "ALBUMARTIST=%albuminterpret%" -T "COMPOSER=%composer%" %haslyrics%--tag-from-file=LYRICS="%lyricsfile%"%haslyrics% -T "DISCNUMBER=%cdnumber%" -T "TOTALDISCS=%totalcds%" -T "TOTALTRACKS=%numtracks%" %hascover%--picture="%coverfile%"%hascover% %source% -o %dest%
TOC of the extracted CD
     Track |   Start  |  Length  | Start sector | End sector
    ---------------------------------------------------------
        1  |  0:00.00 |  2:47.08 |         0    |    12532
        2  |  2:47.08 |  6:42.57 |     12533    |    42739
        3  |  9:29.65 |  6:28.35 |     42740    |    71874
        4  | 15:58.25 |  6:28.50 |     71875    |   101024
        5  | 22:27.00 |  4:34.52 |    101025    |   121626
        6  | 27:01.52 |  2:12.44 |    121627    |   131570
        7  | 29:14.21 |  2:30.15 |    131571    |   142835
        8  | 31:44.36 |  4:42.54 |    142836    |   164039
        9  | 36:27.15 |  8:29.57 |    164040    |   202271
Range status and errors
Selected range
     Filename E:\Downloads\Led Zeppelin - Deluxe Edition Box Set\Led Zeppelin - Led Zeppelin [Remastered Deluxe Edition] (FLAC) {2014}\CD 1\Led Zeppelin - Led Zeppelin I (CD1 Remastered Deluxe Edition).wav
     Peak level 96.8 %
     Extraction speed 4.5 X
     Range quality 100.0 %
     Test CRC E70F2207
     Copy CRC E70F2207
     Copy OK
No errors occurred
AccurateRip summary
Track  1  not present in database
Track  2  not present in database
Track  3  not present in database
Track  4  not present in database
Track  5  not present in database
Track  6  not present in database
Track  7  not present in database
Track  8  not present in database
Track  9  not present in database
None of the tracks are present in the AccurateRip database
End of status report
---- CUETools DB Plugin V2.1.3
[CTDB TOCID: Oeb7QsSLjpEK_zEMb7_bKLf93Hc-] found, Submit result: Oeb7QsSLjpEK_zEMb7_bKLf93Hc- has been confirmed
[74f2ee2e] (17/17) Accurately ripped
==== Log checksum 2102B97927494B8C00793963F5A3D425192B898846E0E6D1F914000A57225FCC ====

Отчёт auCDtect Task manager&#58;

-----------------------
DON'T MODIFY THIS FILE
-----------------------
PERFORMER: auCDtect Task Manager, ver. 1.6.0 RC1 build 1.6.0.1
Copyright (c) 2008-2010 y-soft. All rights reserved
http://y-soft.org
ANALYZER: auCDtect: CD records authenticity detector, version 0.8.2
Copyright (c) 2004 Oleg Berngardt. All rights reserved.
Copyright (c) 2004 Alexander Djourik. All rights reserved.
FILE: Led Zeppelin - Led Zeppelin I (CD1 Remastered Deluxe Edition).flac
  Size: 298357560 Hash: 46C54407F3B017608CCCFE65A9A22B96 Accuracy: -m0
  Conclusion: CDDA 100%
  Signature: 2992CDC828CBEF848309437BBDE2770FB5B3BD50

CD 2


Трeклиcт:
01. Communication Breakdown / Good Times Bad Times (3:53)
02. Can't Quit You Baby (6:41)
03. Heartbreaker (3:49)
04. Dazed And Confused (15:02)
05. Black Mountain Side / White Summer (9:19)
06. You Shook Me (11:56)
07. Moby Dick (9:22)
08. How Many More Times (11:15)
Продoлжитeльность -01:11:17

Содержание индексной карты (.CUE&#41;&#58;

REM GENRE Rock
REM DATE 2014
REM DISCID 6510B408
REM COMMENT "ExactAudioCopy v1.0b3"
PERFORMER "Led Zeppelin"
TITLE "Led Zeppelin I (CD2 Remastered Deluxe Edition)"
FILE "Led Zeppelin - Led Zeppelin I (CD2 Remastered Deluxe Edition).flac" WAVE
  TRACK 01 AUDIO
    TITLE "Communication Breakdown / Good Times Bad Times"
    PERFORMER "Led Zeppelin"
    INDEX 01 00:00:00
  TRACK 02 AUDIO
    TITLE "Can't Quit You Baby"
    PERFORMER "Led Zeppelin"
    INDEX 01 03:52:70
  TRACK 03 AUDIO
    TITLE "Heartbreaker"
    PERFORMER "Led Zeppelin"
    INDEX 01 10:34:19
  TRACK 04 AUDIO
    TITLE "Dazed And Confused"
    PERFORMER "Led Zeppelin"
    INDEX 01 14:23:56
  TRACK 05 AUDIO
    TITLE "Black Mountain Side / White Summer"
    PERFORMER "Led Zeppelin"
    INDEX 01 29:25:29
  TRACK 06 AUDIO
    TITLE "You Shook Me"
    PERFORMER "Led Zeppelin"
    INDEX 01 38:44:38
  TRACK 07 AUDIO
    TITLE "Moby Dick"
    PERFORMER "Led Zeppelin"
    INDEX 01 50:40:29
  TRACK 08 AUDIO
    TITLE "How Many More Times"
    PERFORMER "Led Zeppelin"
    INDEX 01 60:02:01

Отчёт ЕАС&#58;

Exact Audio Copy V1.0 beta 3 from 29. August 2011
EAC extraction logfile from 5. June 2014, 15:21
Led Zeppelin / Led Zeppelin I (CD2 Remastered Deluxe Edition)
Used drive  : PIONEER BD-RW   BDR-206   Adapter: 5  ID: 0
Read mode               : Secure
Utilize accurate stream : Yes
Defeat audio cache      : Yes
Make use of C2 pointers : No
Read offset correction                      : 667
Overread into Lead-In and Lead-Out          : No
Fill up missing offset samples with silence : Yes
Delete leading and trailing silent blocks   : No
Null samples used in CRC calculations       : Yes
Used interface                              : Native Win32 interface for Win NT & 2000
Used output format              : User Defined Encoder
Selected bitrate                : 1024 kBit/s
Quality                         : High
Add ID3 tag                     : No
Command line compressor         : C:\Program Files (x86)\Exact Audio Copy\Flac\flac.exe
Additional command line options : -8 -V -T "ARTIST=%artist%" -T "TITLE=%title%" -T "ALBUM=%albumtitle%" -T "DATE=%year%" -T "TRACKNUMBER=%tracknr%" -T "GENRE=%genre%" -T "COMMENT=%comment%" -T "BAND=%albuminterpret%" -T "ALBUMARTIST=%albuminterpret%" -T "COMPOSER=%composer%" %haslyrics%--tag-from-file=LYRICS="%lyricsfile%"%haslyrics% -T "DISCNUMBER=%cdnumber%" -T "TOTALDISCS=%totalcds%" -T "TOTALTRACKS=%numtracks%" %hascover%--picture="%coverfile%"%hascover% %source% -o %dest%
TOC of the extracted CD
     Track |   Start  |  Length  | Start sector | End sector
    ---------------------------------------------------------
        1  |  0:00.00 |  3:52.70 |         0    |    17469
        2  |  3:52.70 |  6:41.24 |     17470    |    47568
        3  | 10:34.19 |  3:49.37 |     47569    |    64780
        4  | 14:23.56 | 15:01.48 |     64781    |   132403
        5  | 29:25.29 |  9:19.09 |    132404    |   174337
        6  | 38:44.38 | 11:55.66 |    174338    |   228028
        7  | 50:40.29 |  9:21.47 |    228029    |   270150
        8  | 60:02.01 | 11:14.43 |    270151    |   320743
Range status and errors
Selected range
     Filename E:\Downloads\Led Zeppelin - Deluxe Edition Box Set\Led Zeppelin - Led Zeppelin [Remastered Deluxe Edition] (FLAC) {2014}\CD 2\Led Zeppelin - Led Zeppelin I (CD2 Remastered Deluxe Edition).wav
     Peak level 97.2 %
     Extraction speed 5.0 X
     Range quality 100.0 %
     Test CRC 86A59DBA
     Copy CRC 86A59DBA
     Copy OK
No errors occurred
AccurateRip summary
Track  1  not present in database
Track  2  not present in database
Track  3  not present in database
Track  4  not present in database
Track  5  not present in database
Track  6  not present in database
Track  7  not present in database
Track  8  not present in database
None of the tracks are present in the AccurateRip database
End of status report
---- CUETools DB Plugin V2.1.3
[CTDB TOCID: 7hlEg.0aJ43oYMzCL4NSQoqs9hc-] found, Submit result: 7hlEg.0aJ43oYMzCL4NSQoqs9hc- has been confirmed
[33d4e997] (10/12) Accurately ripped
[47d39717] (02/12) Accurately ripped
==== Log checksum 3ED069030B32530A356E448D53040D3F0C311F57A2CA0266B51C641C634F5832 ====

Отчёт auCDtect Task manager&#58;

-----------------------
DON'T MODIFY THIS FILE
-----------------------
PERFORMER: auCDtect Task Manager, ver. 1.6.0 RC1 build 1.6.0.1
Copyright (c) 2008-2010 y-soft. All rights reserved
http://y-soft.org
ANALYZER: auCDtect: CD records authenticity detector, version 0.8.2
Copyright (c) 2004 Oleg Berngardt. All rights reserved.
Copyright (c) 2004 Alexander Djourik. All rights reserved.
FILE: Led Zeppelin - Led Zeppelin I (CD2 Remastered Deluxe Edition).flac
  Size: 437689419 Hash: EBE83621B5965467EF45686B98870C76 Accuracy: -m0
  Conclusion: CDDA 100%
  Signature: 8C3EDBE9EB4D180C630996A9CEC9203D7BF74F82

Led Zeppelin II

CD 1

Трeклиcт:
01. Whole Lotta Love (5:35)
02. What Is and What Should Never Be (4:46)
03. The Lemon Song (6:19)
04. Thank You (4:49)
05. Heartbreaker (4:14)
06. Living Loving Maid (She's Just a Woman) (2:39)
07. Ramble On (4:34)
08. Moby Dick (4:21)
Продoлжитeльность -00:37:18

Содержание индексной карты (.CUE&#41;&#58;

REM GENRE Rock
REM DATE 2014
REM DISCID 5E08BD08
REM COMMENT "ExactAudioCopy v1.0b3"
PERFORMER "Led Zeppelin"
TITLE "Led Zeppelin II (CD1 Remastered Deluxe Edition)"
FILE "Led Zeppelin - Led Zeppelin II (CD1 Remastered Deluxe Edition).flac" WAVE
  TRACK 01 AUDIO
    TITLE "Whole Lotta Love"
    PERFORMER "Led Zeppelin"
    INDEX 01 00:00:00
  TRACK 02 AUDIO
    TITLE "What Is and What Should Never Be"
    PERFORMER "Led Zeppelin"
    INDEX 01 05:34:41
  TRACK 03 AUDIO
    TITLE "The Lemon Song"
    PERFORMER "Led Zeppelin"
    INDEX 01 10:20:58
  TRACK 04 AUDIO
    TITLE "Thank You"
    PERFORMER "Led Zeppelin"
    INDEX 01 16:40:12
  TRACK 05 AUDIO
    TITLE "Heartbreaker"
    PERFORMER "Led Zeppelin"
    INDEX 01 21:29:48
  TRACK 06 AUDIO
    TITLE "Living Loving Maid (She's Just a Woman)"
    PERFORMER "Led Zeppelin"
    INDEX 01 25:43:53
  TRACK 07 AUDIO
    TITLE "Ramble On"
    PERFORMER "Led Zeppelin"
    INDEX 01 28:23:00
  TRACK 08 AUDIO
    TITLE "Moby Dick"
    PERFORMER "Led Zeppelin"
    INDEX 01 32:57:00

Отчёт ЕАС&#58;

Exact Audio Copy V1.0 beta 3 from 29. August 2011
EAC extraction logfile from 5. June 2014, 20:05
Led Zeppelin / Led Zeppelin II (CD1 Remastered Deluxe Edition)
Used drive  : PIONEER BD-RW   BDR-206   Adapter: 5  ID: 0
Read mode               : Secure
Utilize accurate stream : Yes
Defeat audio cache      : Yes
Make use of C2 pointers : No
Read offset correction                      : 667
Overread into Lead-In and Lead-Out          : No
Fill up missing offset samples with silence : Yes
Delete leading and trailing silent blocks   : No
Null samples used in CRC calculations       : Yes
Used interface                              : Native Win32 interface for Win NT & 2000
Used output format              : User Defined Encoder
Selected bitrate                : 1024 kBit/s
Quality                         : High
Add ID3 tag                     : No
Command line compressor         : C:\Program Files (x86)\Exact Audio Copy\Flac\flac.exe
Additional command line options : -8 -V -T "ARTIST=%artist%" -T "TITLE=%title%" -T "ALBUM=%albumtitle%" -T "DATE=%year%" -T "TRACKNUMBER=%tracknr%" -T "GENRE=%genre%" -T "COMMENT=%comment%" -T "BAND=%albuminterpret%" -T "ALBUMARTIST=%albuminterpret%" -T "COMPOSER=%composer%" %haslyrics%--tag-from-file=LYRICS="%lyricsfile%"%haslyrics% -T "DISCNUMBER=%cdnumber%" -T "TOTALDISCS=%totalcds%" -T "TOTALTRACKS=%numtracks%" %hascover%--picture="%coverfile%"%hascover% %source% -o %dest%
TOC of the extracted CD
     Track |   Start  |  Length  | Start sector | End sector
    ---------------------------------------------------------
        1  |  0:00.00 |  5:34.41 |         0    |    25090
        2  |  5:34.41 |  4:46.17 |     25091    |    46557
        3  | 10:20.58 |  6:19.29 |     46558    |    75011
        4  | 16:40.12 |  4:49.36 |     75012    |    96722
        5  | 21:29.48 |  4:14.05 |     96723    |   115777
        6  | 25:43.53 |  2:39.22 |    115778    |   127724
        7  | 28:23.00 |  4:34.00 |    127725    |   148274
        8  | 32:57.00 |  4:20.68 |    148275    |   167842
Range status and errors
Selected range
     Filename E:\Downloads\Led Zeppelin - Deluxe Edition Box Set\Led Zeppelin - Led Zeppelin II [Remastered Deluxe Edition] (FLAC) {2014}\CD 1\Led Zeppelin - Led Zeppelin II (CD1 Remastered Deluxe Edition).wav
     Peak level 100.0 %
     Extraction speed 4.3 X
     Range quality 100.0 %
     Test CRC C595F369
     Copy CRC C595F369
     Copy OK
No errors occurred
AccurateRip summary
Track  1  not present in database
Track  2  not present in database
Track  3  not present in database
Track  4  not present in database
Track  5  not present in database
Track  6  not present in database
Track  7  not present in database
Track  8  not present in database
None of the tracks are present in the AccurateRip database
End of status report
---- CUETools DB Plugin V2.1.3
[CTDB TOCID: ByzqWWSQ8S7MEa92ilkSeEu4ltY-] disk not present in database, Submit result: ByzqWWSQ8S7MEa92ilkSeEu4ltY- has been uploaded
==== Log checksum 20C24537753FBF52DCC10EDC57FAEB92FCC4B037C7A37A087B8C5B094D16E351 ====

Отчёт auCDtect Task manager&#58;

-----------------------
DON'T MODIFY THIS FILE
-----------------------
PERFORMER: auCDtect Task Manager, ver. 1.6.0 RC1 build 1.6.0.1
Copyright (c) 2008-2010 y-soft. All rights reserved
http://y-soft.org
ANALYZER: auCDtect: CD records authenticity detector, version 0.8.2
Copyright (c) 2004 Oleg Berngardt. All rights reserved.
Copyright (c) 2004 Alexander Djourik. All rights reserved.
FILE: Led Zeppelin - Led Zeppelin II (CD1 Remastered Deluxe Edition).flac
  Size: 244610708 Hash: 1C1760B7E121803670A3D442B6AD7A70 Accuracy: -m0
  Conclusion: CDDA 100%
  Signature: CFABA9312097E969D61560F45E1599132BCCAA73

CD 2

Трeклиcт:
01. Bring It On Home (4:20)
02. Whole Lotta Love (Rough Mix with Vocal) (5:39)
03. What Is and What Should Never Be (Rough Mix with Vocal) (4:34)
04. Thank You (Backing Track) (4:21)
05. Heartbreaker (Rough Mix with Vocal) (4:25)
06. Living Loving Maid (She's Just a Woman) (Backing Track) (3:11)
07. Ramble On (Rough Mix with Vocal) (4:45)
08. Moby Dick (Backing Track) (1:38)
09. La La (Intro, Outro Rough Mix) (4:08)
Продoлжитeльность -00:37:01

Содержание индексной карты (.CUE&#41;&#58;

REM GENRE Rock
REM DATE 2014
REM DISCID 6E08AC09
REM COMMENT "ExactAudioCopy v1.0b3"
PERFORMER "Led Zeppelin"
TITLE "Led Zeppelin II (CD2 Remastered Deluxe Edition)"
FILE "Led Zeppelin - Led Zeppelin II (CD2 Remastered Deluxe Edition).flac" WAVE
  TRACK 01 AUDIO
    TITLE "Bring It On Home"
    PERFORMER "Led Zeppelin"
    INDEX 01 00:00:00
  TRACK 02 AUDIO
    TITLE "Whole Lotta Love (Rough Mix with Vocal)"
    PERFORMER "Led Zeppelin"
    INDEX 01 04:19:55
  TRACK 03 AUDIO
    TITLE "What Is and What Should Never Be (Rough Mix with Vocal)"
    PERFORMER "Led Zeppelin"
    INDEX 01 09:58:55
  TRACK 04 AUDIO
    TITLE "Thank You (Backing Track)"
    PERFORMER "Led Zeppelin"
    INDEX 01 14:32:47
  TRACK 05 AUDIO
    TITLE "Heartbreaker (Rough Mix with Vocal)"
    PERFORMER "Led Zeppelin"
    INDEX 01 18:53:22
  TRACK 06 AUDIO
    TITLE "Living Loving Maid (She's Just a Woman) (Backing Track)"
    PERFORMER "Led Zeppelin"
    INDEX 01 23:18:47
  TRACK 07 AUDIO
    TITLE "Ramble On (Rough Mix with Vocal)"
    PERFORMER "Led Zeppelin"
    INDEX 01 26:29:57
  TRACK 08 AUDIO
    TITLE "Moby Dick (Backing Track)"
    PERFORMER "Led Zeppelin"
    INDEX 01 31:14:44
  TRACK 09 AUDIO
    TITLE "La La (Intro, Outro Rough Mix)"
    PERFORMER "Led Zeppelin"
    INDEX 01 32:52:71

Отчёт ЕАС&#58;

Exact Audio Copy V1.0 beta 3 from 29. August 2011
EAC extraction logfile from 5. June 2014, 20:40
Led Zeppelin / Led Zeppelin II (CD2 Remastered Deluxe Edition)
Used drive  : PIONEER BD-RW   BDR-206   Adapter: 5  ID: 0
Read mode               : Secure
Utilize accurate stream : Yes
Defeat audio cache      : Yes
Make use of C2 pointers : No
Read offset correction                      : 667
Overread into Lead-In and Lead-Out          : No
Fill up missing offset samples with silence : Yes
Delete leading and trailing silent blocks   : No
Null samples used in CRC calculations       : Yes
Used interface                              : Native Win32 interface for Win NT & 2000
Used output format              : User Defined Encoder
Selected bitrate                : 1024 kBit/s
Quality                         : High
Add ID3 tag                     : No
Command line compressor         : C:\Program Files (x86)\Exact Audio Copy\Flac\flac.exe
Additional command line options : -8 -V -T "ARTIST=%artist%" -T "TITLE=%title%" -T "ALBUM=%albumtitle%" -T "DATE=%year%" -T "TRACKNUMBER=%tracknr%" -T "GENRE=%genre%" -T "COMMENT=%comment%" -T "BAND=%albuminterpret%" -T "ALBUMARTIST=%albuminterpret%" -T "COMPOSER=%composer%" %haslyrics%--tag-from-file=LYRICS="%lyricsfile%"%haslyrics% -T "DISCNUMBER=%cdnumber%" -T "TOTALDISCS=%totalcds%" -T "TOTALTRACKS=%numtracks%" %hascover%--picture="%coverfile%"%hascover% %source% -o %dest%
TOC of the extracted CD
     Track |   Start  |  Length  | Start sector | End sector
    ---------------------------------------------------------
        1  |  0:00.00 |  4:19.55 |         0    |    19479
        2  |  4:19.55 |  5:39.00 |     19480    |    44904
        3  |  9:58.55 |  4:33.67 |     44905    |    65446
        4  | 14:32.47 |  4:20.50 |     65447    |    84996
        5  | 18:53.22 |  4:25.25 |     84997    |   104896
        6  | 23:18.47 |  3:11.10 |    104897    |   119231
        7  | 26:29.57 |  4:44.62 |    119232    |   140593
        8  | 31:14.44 |  1:38.27 |    140594    |   147970
        9  | 32:52.71 |  4:07.56 |    147971    |   166551
Range status and errors
Selected range
     Filename E:\Downloads\Led Zeppelin - Deluxe Edition Box Set\Led Zeppelin - Led Zeppelin II [Remastered Deluxe Edition] (FLAC) {2014}\CD 2\Led Zeppelin - Led Zeppelin II (CD2 Remastered Deluxe Edition).wav
     Peak level 98.9 %
     Extraction speed 4.3 X
     Range quality 100.0 %
     Test CRC 1FA99920
     Copy CRC 1FA99920
     Copy OK
No errors occurred
AccurateRip summary
Track  1  not present in database
Track  2  not present in database
Track  3  not present in database
Track  4  not present in database
Track  5  not present in database
Track  6  not present in database
Track  7  not present in database
Track  8  not present in database
Track  9  not present in database
None of the tracks are present in the AccurateRip database
End of status report
---- CUETools DB Plugin V2.1.3
[CTDB TOCID: VDyt7bLEby0nWDZvcHSAeQAq0lM-] disk not present in database, Submit result: VDyt7bLEby0nWDZvcHSAeQAq0lM- has been uploaded
==== Log checksum 87D2B47B9D3A8F8DFDC68F449EE1FAABFD8D2C9F465C618C80555DBEC1D6EBD4 ====

Отчёт auCDtect Task manager&#58;

-----------------------
DON'T MODIFY THIS FILE
-----------------------
PERFORMER: auCDtect Task Manager, ver. 1.6.0 RC1 build 1.6.0.1
Copyright (c) 2008-2010 y-soft. All rights reserved
http://y-soft.org
ANALYZER: auCDtect: CD records authenticity detector, version 0.8.2
Copyright (c) 2004 Oleg Berngardt. All rights reserved.
Copyright (c) 2004 Alexander Djourik. All rights reserved.
FILE: Led Zeppelin - Led Zeppelin II (CD2 Remastered Deluxe Edition).flac
  Size: 224779085 Hash: EE161922264D19B1ACC1411EC04D9FE4 Accuracy: -m0
  Conclusion: CDDA 100%
  Signature: 4363B85703A530C7692ABED85B4F93F421AEC999

LedZeppelin III

CD 1

Трeклиcт:
01. Immigrant Song (2:27)
02. Friends (3:54)
03. Celebration Day (3:30)
04. Since I've Been Loving You (7:24)
05. Out On The Tiles (4:07)
06. Gallows Pole (4:58)
07. Tangerine (3:12)
08. That's The Way (5:37)
09. Bron-Y-Aur Stomp (4:17)
10. Hats Off To (Roy) Harper (3:44)
Продoлжитeльность -00:43:11

Содержание индексной карты (.CUE&#41;&#58;

REM GENRE Rock
REM DATE 2014
REM DISCID 850A1F0A
REM COMMENT "ExactAudioCopy v1.0b3"
PERFORMER "Led Zeppelin"
TITLE "Led Zeppelin III  (CD1 Remastered Deluxe Edition)"
FILE "Led Zeppelin - Led Zeppelin III  (CD1 Remastered Deluxe Edition).flac" WAVE
  TRACK 01 AUDIO
    TITLE "Immigrant Song"
    PERFORMER "Led Zeppelin"
    INDEX 01 00:00:00
  TRACK 02 AUDIO
    TITLE "Friends"
    PERFORMER "Led Zeppelin"
    INDEX 01 02:27:07
  TRACK 03 AUDIO
    TITLE "Celebration Day"
    PERFORMER "Led Zeppelin"
    INDEX 01 06:21:11
  TRACK 04 AUDIO
    TITLE "Since I've Been Loving You"
    PERFORMER "Led Zeppelin"
    INDEX 01 09:51:16
  TRACK 05 AUDIO
    TITLE "Out On The Tiles"
    PERFORMER "Led Zeppelin"
    INDEX 01 17:15:27
  TRACK 06 AUDIO
    TITLE "Gallows Pole"
    PERFORMER "Led Zeppelin"
    INDEX 01 21:22:53
  TRACK 07 AUDIO
    TITLE "Tangerine"
    PERFORMER "Led Zeppelin"
    INDEX 01 26:20:48
  TRACK 08 AUDIO
    TITLE "That's The Way"
    PERFORMER "Led Zeppelin"
    INDEX 01 29:32:35
  TRACK 09 AUDIO
    TITLE "Bron-Y-Aur Stomp"
    PERFORMER "Led Zeppelin"
    INDEX 01 35:09:43
  TRACK 10 AUDIO
    TITLE "Hats Off To (Roy) Harper"
    PERFORMER "Led Zeppelin"
    INDEX 01 39:27:01

Отчёт ЕАС&#58;

Exact Audio Copy V1.0 beta 3 from 29. August 2011
EAC extraction logfile from 5. June 2014, 21:55
Led Zeppelin / Led Zeppelin III  (CD1 Remastered Deluxe Edition)
Used drive  : PIONEER BD-RW   BDR-206   Adapter: 5  ID: 0
Read mode               : Secure
Utilize accurate stream : Yes
Defeat audio cache      : Yes
Make use of C2 pointers : No
Read offset correction                      : 667
Overread into Lead-In and Lead-Out          : No
Fill up missing offset samples with silence : Yes
Delete leading and trailing silent blocks   : No
Null samples used in CRC calculations       : Yes
Used interface                              : Native Win32 interface for Win NT & 2000
Used output format              : User Defined Encoder
Selected bitrate                : 1024 kBit/s
Quality                         : High
Add ID3 tag                     : No
Command line compressor         : C:\Program Files (x86)\Exact Audio Copy\Flac\flac.exe
Additional command line options : -8 -V -T "ARTIST=%artist%" -T "TITLE=%title%" -T "ALBUM=%albumtitle%" -T "DATE=%year%" -T "TRACKNUMBER=%tracknr%" -T "GENRE=%genre%" -T "COMMENT=%comment%" -T "BAND=%albuminterpret%" -T "ALBUMARTIST=%albuminterpret%" -T "COMPOSER=%composer%" %haslyrics%--tag-from-file=LYRICS="%lyricsfile%"%haslyrics% -T "DISCNUMBER=%cdnumber%" -T "TOTALDISCS=%totalcds%" -T "TOTALTRACKS=%numtracks%" %hascover%--picture="%coverfile%"%hascover% %source% -o %dest%
TOC of the extracted CD
     Track |   Start  |  Length  | Start sector | End sector
    ---------------------------------------------------------
        1  |  0:00.00 |  2:27.07 |         0    |    11031
        2  |  2:27.07 |  3:54.04 |     11032    |    28585
        3  |  6:21.11 |  3:30.05 |     28586    |    44340
        4  |  9:51.16 |  7:24.11 |     44341    |    77651
        5  | 17:15.27 |  4:07.26 |     77652    |    96202
        6  | 21:22.53 |  4:57.70 |     96203    |   118547
        7  | 26:20.48 |  3:11.62 |    118548    |   132934
        8  | 29:32.35 |  5:37.08 |    132935    |   158217
        9  | 35:09.43 |  4:17.33 |    158218    |   177525
       10  | 39:27.01 |  3:44.32 |    177526    |   194357
Range status and errors
Selected range
     Filename E:\Downloads\Led Zeppelin - Deluxe Edition Box Set\Led Zeppelin - LedZeppelin III  [Remastered Deluxe Edition] (FLAC) {2014}\CD 1\Led Zeppelin - Led Zeppelin III  (CD1 Remastered Deluxe Edition).wav
     Peak level 97.7 %
     Extraction speed 4.4 X
     Range quality 100.0 %
     Test CRC 7294DA7D
     Copy CRC 7294DA7D
     Copy OK
No errors occurred
AccurateRip summary
Track  1  not present in database
Track  2  not present in database
Track  3  not present in database
Track  4  not present in database
Track  5  not present in database
Track  6  not present in database
Track  7  not present in database
Track  8  not present in database
Track  9  not present in database
Track 10  not present in database
None of the tracks are present in the AccurateRip database
End of status report
---- CUETools DB Plugin V2.1.3
[CTDB TOCID: lXoaMJNjolvdfBUdT2ZLdjYP7Wc-] found, Submit result: lXoaMJNjolvdfBUdT2ZLdjYP7Wc- has been confirmed
[990eaf93] (15/15) Accurately ripped
==== Log checksum 821B546C44A69E9E99A1EF11DB396DC5ADE6DB002EDF9F4E0CB6A4956E12ABBF ====

Отчёт auCDtect Task manager&#58;

-----------------------
DON'T MODIFY THIS FILE
-----------------------
PERFORMER: auCDtect Task Manager, ver. 1.6.0 RC1 build 1.6.0.1
Copyright (c) 2008-2010 y-soft. All rights reserved
http://y-soft.org
ANALYZER: auCDtect: CD records authenticity detector, version 0.8.2
Copyright (c) 2004 Oleg Berngardt. All rights reserved.
Copyright (c) 2004 Alexander Djourik. All rights reserved.
FILE: Led Zeppelin - Led Zeppelin III  (CD1 Remastered Deluxe Edition).flac
  Size: 305301570 Hash: DD6A1C7B01DF3EE805138D5D0E6C9C21 Accuracy: -m0
  Conclusion: CDDA 100%
  Signature: EA4ABFFF6C68FE29A29129458FB2D5FE9E70D807

CD 2

Трeклиcт:
01. Immigrant Song (alt. mix) (2:26)
02. Friends (backing track) (3:43)
03. Celebration Day (alt. mix) (3:19)
04. Since I've Been Loving You (rough mix - take 1) (7:18)
05. Bathroom Sound (inst) (4:01)
06. Gallows Pole (rough mix) (5:21)
07. That's The Way (rough mix with dulcimer & backwards echo) (5:23)
08. Jennings Farm Blues (rough mix of all guitar overdubs that day) (5:55)
09. Key To The Highway - Trouble In Mind (rough mix) (4:08)
Продoлжитeльность -00:41:34

Содержание индексной карты (.CUE&#41;&#58;

REM GENRE Rock
REM DATE 2014
REM DISCID 7709BD09
REM COMMENT "ExactAudioCopy v1.0b3"
PERFORMER "Led Zeppelin"
TITLE "Led Zeppelin III (CD2 Remastered Deluxe Edition)"
FILE "Led Zeppelin - Led Zeppelin III (CD2 Remastered Deluxe Edition).flac" WAVE
  TRACK 01 AUDIO
    TITLE "Immigrant Song (alt. mix)"
    PERFORMER "Led Zeppelin"
    INDEX 01 00:00:00
  TRACK 02 AUDIO
    TITLE "Friends (backing track)"
    PERFORMER "Led Zeppelin"
    INDEX 01 02:25:68
  TRACK 03 AUDIO
    TITLE "Celebration Day (alt. mix)"
    PERFORMER "Led Zeppelin"
    INDEX 01 06:09:04
  TRACK 04 AUDIO
    TITLE "Since I've Been Loving You (rough mix  - take 1)"
    PERFORMER "Led Zeppelin"
    INDEX 01 09:28:30
  TRACK 05 AUDIO
    TITLE "Bathroom Sound (inst)"
    PERFORMER "Led Zeppelin"
    INDEX 01 16:46:18
  TRACK 06 AUDIO
    TITLE "Gallows Pole (rough mix)"
    PERFORMER "Led Zeppelin"
    INDEX 01 20:47:20
  TRACK 07 AUDIO
    TITLE "That's The Way (rough mix with dulcimer & backwards echo)"
    PERFORMER "Led Zeppelin"
    INDEX 01 26:07:66
  TRACK 08 AUDIO
    TITLE "Jennings Farm Blues (rough mix of all guitar overdubs that day)"
    PERFORMER "Led Zeppelin"
    INDEX 01 31:31:17
  TRACK 09 AUDIO
    TITLE "Key To The Highway - Trouble In Mind (rough mix)"
    PERFORMER "Led Zeppelin"
    INDEX 01 37:25:65

Отчёт ЕАС&#58;

Exact Audio Copy V1.0 beta 3 from 29. August 2011
EAC extraction logfile from 5. June 2014, 23:52
Led Zeppelin / Led Zeppelin III (CD2 Remastered Deluxe Edition)
Used drive  : PIONEER BD-RW   BDR-206   Adapter: 5  ID: 0
Read mode               : Secure
Utilize accurate stream : Yes
Defeat audio cache      : Yes
Make use of C2 pointers : No
Read offset correction                      : 667
Overread into Lead-In and Lead-Out          : No
Fill up missing offset samples with silence : Yes
Delete leading and trailing silent blocks   : No
Null samples used in CRC calculations       : Yes
Used interface                              : Native Win32 interface for Win NT & 2000
Used output format              : User Defined Encoder
Selected bitrate                : 1024 kBit/s
Quality                         : High
Add ID3 tag                     : No
Command line compressor         : C:\Program Files (x86)\Exact Audio Copy\Flac\flac.exe
Additional command line options : -8 -V -T "ARTIST=%artist%" -T "TITLE=%title%" -T "ALBUM=%albumtitle%" -T "DATE=%year%" -T "TRACKNUMBER=%tracknr%" -T "GENRE=%genre%" -T "COMMENT=%comment%" -T "BAND=%albuminterpret%" -T "ALBUMARTIST=%albuminterpret%" -T "COMPOSER=%composer%" %haslyrics%--tag-from-file=LYRICS="%lyricsfile%"%haslyrics% -T "DISCNUMBER=%cdnumber%" -T "TOTALDISCS=%totalcds%" -T "TOTALTRACKS=%numtracks%" %hascover%--picture="%coverfile%"%hascover% %source% -o %dest%
TOC of the extracted CD
     Track |   Start  |  Length  | Start sector | End sector
    ---------------------------------------------------------
        1  |  0:00.00 |  2:25.68 |         0    |    10942
        2  |  2:25.68 |  3:43.11 |     10943    |    27678
        3  |  6:09.04 |  3:19.26 |     27679    |    42629
        4  |  9:28.30 |  7:17.63 |     42630    |    75467
        5  | 16:46.18 |  4:01.02 |     75468    |    93544
        6  | 20:47.20 |  5:20.46 |     93545    |   117590
        7  | 26:07.66 |  5:23.26 |    117591    |   141841
        8  | 31:31.17 |  5:54.48 |    141842    |   168439
        9  | 37:25.65 |  4:07.56 |    168440    |   187020
Range status and errors
Selected range
     Filename E:\Downloads\Led Zeppelin - Deluxe Edition Box Set\Led Zeppelin - LedZeppelin III  [Remastered Deluxe Edition] (FLAC) {2014}\CD 2\Led Zeppelin - Led Zeppelin III (CD2 Remastered Deluxe Edition).wav
     Peak level 96.6 %
     Extraction speed 4.4 X
     Range quality 100.0 %
     Test CRC 7929784B
     Copy CRC 7929784B
     Copy OK
No errors occurred
AccurateRip summary
Track  1  not present in database
Track  2  not present in database
Track  3  not present in database
Track  4  not present in database
Track  5  not present in database
Track  6  not present in database
Track  7  not present in database
Track  8  not present in database
Track  9  not present in database
None of the tracks are present in the AccurateRip database
End of status report
---- CUETools DB Plugin V2.1.3
[CTDB TOCID: 26vcBcCqvTSAsmYa2iA0sd7B12s-] found, Submit result: 26vcBcCqvTSAsmYa2iA0sd7B12s- has been confirmed
[4d16fa2f] (13/13) Accurately ripped
==== Log checksum B875B93D03310C8E27617D51A8996A424B463EDAA79922E32DB70459F24D0AB1 ====

Отчёт auCDtect Task manager&#58;

-----------------------
DON'T MODIFY THIS FILE
-----------------------
PERFORMER: auCDtect Task Manager, ver. 1.6.0 RC1 build 1.6.0.1
Copyright (c) 2008-2010 y-soft. All rights reserved
http://y-soft.org
ANALYZER: auCDtect: CD records authenticity detector, version 0.8.2
Copyright (c) 2004 Oleg Berngardt. All rights reserved.
Copyright (c) 2004 Alexander Djourik. All rights reserved.
FILE: Led Zeppelin - Led Zeppelin III (CD2 Remastered Deluxe Edition).flac
  Size: 271326038 Hash: 62CFC917B7231B0FAAA9D05316A95764 Accuracy: -m0
  Conclusion: CDDA 100%
  Signature: B59E013C1329ED31D64FA988BB2915E1019076BD
Время раздачи: 24/7 - до первых 15 сидов, далее по необходимости.-
[Профиль] [ЛС]
Показать сообщения:    

Текущее время: Сегодня 08:34

Часовой пояс: GMT



Вы не можете начинать темы
Вы не можете отвечать на сообщения
Вы не можете редактировать свои сообщения
Вы не можете удалять свои сообщения
Вы не можете голосовать в опросах
Вы не можете прикреплять файлы к сообщениям
Вы не можете скачивать файлы