Latin Lover - Casanova Action (2007) [APE|Lossless]<Italo-Disco>

 
Автор Сообщение

sergej644 ®

Пол:

Стаж: 4 года 11 месяцев

Сообщений: 6044

Откуда: Soviet Union



Награды: Нет

Торрент-статистика

Создавать темы 24-Дек-2014 22:27

[Цитировать]

-Latin Lover - Casanova Action (2007)- Год: 2007
Лейбл: ESonCD
Каталог #: 200706-2
Жанр: Italo-Disco
Продолжительность: 01:11:26
Кодек: APE
Битрейт: Lossless
Тип битрейта: image +.cue
Треклист:
01. Casanova Action (Long & Hot-Version) 6:24
02. Laser Light (Original Version) 5:25
03. Dr.Love (Passion Mix) 5:53
04. Laser Dance 5:46
05. Laser Light (Remix '87) 6:40
06. Casanova Action (87' Re-Edit) 6:17
07. Dr.Love (Dub Mix) 5:43
08. Casanova's Dance (Insrtrumental) 6:23
09. Megamix 6:11
10. Laser Light (Chernobyl Mix) 6:35
11. Laser Light (Hi-Nrg Mix) 4:59
12. Male Stripper & Laser Light (Man 2 Man Meet Man Parish & Latin Lover) 5:11

Отчёт ЕАС&#58;

Exact Audio Copy V0.99 prebeta 5 from 4. May 2009
Отчёт EAC об извлечении, выполненном 12. сентября 2009, 23:09
Latin Lover / Casanova Action
Дисковод: Optiarc DVD RW AD-5200A Adapter: 0 ID: 0
Режим чтения : Достоверность
Использование точного потока : Да
Отключение кэша аудио : Да
Использование указателей C2 : Нет
Коррекция смещения при чтении : 48
Способность читать области Lead-in и Lead-out : Нет
Заполнение пропущенных сэмплов тишиной : Да
Удаление блоков с тишиной в начале и конце : Нет
При вычислениях CRC использовались нулевые сэмплы : Да
Интерфейс : Установленный внешний ASPI-интерфейс
Выходной формат : Внутренние WAV-операции
Формат сэмплов : 44.100 Гц; 16 бит; стерео
TOC извлечённого CD
Трек | Старт | Длительность | Начальный сектор | Конечный сектор
---------------------------------------------------------------------
1 | 0:00.00 | 6:23.58 | 0 | 28782
2 | 6:23.58 | 5:24.56 | 28783 | 53138
3 | 11:48.39 | 5:52.67 | 53139 | 79605
4 | 17:41.31 | 5:46.28 | 79606 | 105583
5 | 23:27.59 | 6:40.22 | 105584 | 135605
6 | 30:08.06 | 6:16.65 | 135606 | 163870
7 | 36:24.71 | 5:42.63 | 163871 | 189583
8 | 42:07.59 | 6:22.73 | 189584 | 218306
9 | 48:30.57 | 6:10.63 | 218307 | 246119
10 | 54:41.45 | 6:34.49 | 246120 | 275718
11 | 61:16.19 | 4:59.02 | 275719 | 298145
12 | 66:15.21 | 5:11.19 | 298146 | 321489
Характеристики диапазона извлечения и сообщения об ошибках
Выбранный диапазон
Имя файла E:\Latin Lover - Casanova Action\Latin Lover - Casanova Action.wav
Пиковый уровень 100.0 %
Качество диапазона 100.0 %
CRC теста D2172891
CRC копии D2172891
Копирование... OK
Ошибок не произошло
AccurateRip: сводка
Трек 1 точность не определена (достоверность 1) [3E3FE113], AccurateRip вернул [50734E82]
Трек 2 точность не определена (достоверность 1) [C6D8A167], AccurateRip вернул [011777E7]
Трек 3 точность не определена (достоверность 1) [BD82EFD5], AccurateRip вернул [FAF5FCB5]
Трек 4 точность не определена (достоверность 1) [31DE2ED4], AccurateRip вернул [7C828DE4]
Трек 5 точность не определена (достоверность 1) [779B9CB9], AccurateRip вернул [2D128939]
Трек 6 точность не определена (достоверность 1) [B213A0E0], AccurateRip вернул [EFB01600]
Трек 7 точность не определена (достоверность 1) [8C973413], AccurateRip вернул [57116C1E]
Трек 8 точность не определена (достоверность 1) [D4B17B23], AccurateRip вернул [2554ABE3]
Трек 9 точность не определена (достоверность 1) [A83C7E5D], AccurateRip вернул [BCBE4C5D]
Трек 10 точность не определена (достоверность 1) [E51ECDA7], AccurateRip вернул [6E3D3E07]
Трек 11 точность не определена (достоверность 1) [38730CD0], AccurateRip вернул [ADC7EF70]
Трек 12 точность не определена (достоверность 1) [2B95C839], AccurateRip вернул [A54382F0]
Ни один трек не прошёл проверки на точность
В вашей базе может быть иной вариант штамповки диска
Конец отчёта

Отчёт auCDtect Task manager&#58;

-----------------------
DON'T MODIFY THIS FILE
-----------------------
PERFORMER: auCDtect Task Manager, ver. 1.5.1RC4 build 1.5.1.5
Copyright (c) 2008-2010 y-soft. All rights reserved
http://y-soft.org
ANALYZER: auCDtect: CD records authenticity detector, version 0.8.2
Copyright (c) 2004 Oleg Berngardt. All rights reserved.
Copyright (c) 2004 Alexander Djourik. All rights reserved.
FILE: Latin Lover - Casanova Action.ape
  Size: 508472844 Hash: D2ED52552866ACE264C9DC7DACDBF010 Accuracy: -m0
  Conclusion: CDDA 100%
  Signature: 7197657DEB6FF6DA8B853881B3081E8192416D0F

Содержание индексной карты (.CUE&#41;&#58;

REM GENRE Italo-Disco
REM DATE 2007
REM DISCID AF10BE0C
REM COMMENT "ExactAudioCopy v0.99pb5"
PERFORMER "Latin Lover"
TITLE "Casanova Action"
FILE "Latin Lover - Casanova Action.ape" WAVE
  TRACK 01 AUDIO
    TITLE "Casanova Action (Long & Hot-Version)"
    PERFORMER "Latin Lover"
    FLAGS DCP
    INDEX 01 00:00:00
    INDEX 02 00:12:48
    INDEX 03 04:28:10
    INDEX 04 05:16:28
  TRACK 02 AUDIO
    TITLE "Laser Light (Original Version)"
    PERFORMER "Latin Lover"
    FLAGS DCP
    INDEX 00 06:21:58
    INDEX 01 06:23:58
    INDEX 02 06:45:59
    INDEX 03 08:01:65
    INDEX 04 09:38:53
  TRACK 03 AUDIO
    TITLE "Dr.Love (Passion Mix)"
    PERFORMER "Latin Lover"
    FLAGS DCP
    INDEX 00 11:46:39
    INDEX 01 11:48:39
    INDEX 02 14:23:58
    INDEX 03 14:24:53
    INDEX 04 14:24:54
  TRACK 04 AUDIO
    TITLE "Laser Dance"
    PERFORMER "Latin Lover"
    FLAGS DCP
    INDEX 00 17:39:31
    INDEX 01 17:41:31
    INDEX 02 20:29:00
  TRACK 05 AUDIO
    TITLE "Laser Light (Remix '87)"
    PERFORMER "Latin Lover"
    FLAGS DCP
    INDEX 00 23:25:59
    INDEX 01 23:27:59
    INDEX 02 25:11:73
  TRACK 06 AUDIO
    TITLE "Casanova Action (87' Re-Edit)"
    PERFORMER "Latin Lover"
    FLAGS DCP
    INDEX 00 30:06:06
    INDEX 01 30:08:06
    INDEX 02 31:35:20
    INDEX 03 31:49:73
    INDEX 04 31:50:00
    INDEX 05 35:05:07
    INDEX 06 35:05:09
    INDEX 07 35:05:13
    INDEX 08 35:22:27
    INDEX 09 35:22:33
    INDEX 10 35:35:46
    INDEX 11 35:35:52
    INDEX 12 35:36:46
  TRACK 07 AUDIO
    TITLE "Dr.Love (Dub Mix)"
    PERFORMER "Latin Lover"
    FLAGS DCP
    INDEX 00 36:22:71
    INDEX 01 36:24:71
  TRACK 08 AUDIO
    TITLE "Casanova's Dance (Insrtrumental)"
    PERFORMER "Latin Lover"
    FLAGS DCP
    INDEX 00 42:05:59
    INDEX 01 42:07:59
    INDEX 02 44:17:16
    INDEX 03 46:44:51
    INDEX 04 48:10:08
  TRACK 09 AUDIO
    TITLE "Megamix"
    PERFORMER "Latin Lover"
    FLAGS DCP
    INDEX 00 48:28:57
    INDEX 01 48:30:57
    INDEX 02 49:23:67
    INDEX 03 51:12:67
  TRACK 10 AUDIO
    TITLE "Laser Light (Chernobyl Mix)"
    PERFORMER "Latin Lover"
    FLAGS DCP
    INDEX 00 54:39:45
    INDEX 01 54:41:45
    INDEX 02 57:56:61
    INDEX 03 57:58:03
    INDEX 04 57:58:07
    INDEX 05 59:55:35
    INDEX 06 61:06:49
  TRACK 11 AUDIO
    TITLE "Laser Light (Hi-Nrg Mix)"
    PERFORMER "Latin Lover"
    FLAGS DCP
    INDEX 00 61:14:19
    INDEX 01 61:16:19
  TRACK 12 AUDIO
    TITLE "Male Stripper & Laser Light (Man 2 Man Meet Man Parish & Latin Lover)"
    PERFORMER "Latin Lover"
    FLAGS DCP
    INDEX 00 66:13:21
    INDEX 01 66:15:21
[Профиль] [ЛС]

Создавать темы 13-Авг-2015 10:44 (спустя 7 месяцев 20 дней)

Топик был перенесен из форума Зарубежная в форум Technopop, Eurodance, Disco
sergej644
 
Показать сообщения:    

Текущее время: Сегодня 14:27

Часовой пояс: GMT



Вы не можете начинать темы
Вы не можете отвечать на сообщения
Вы не можете редактировать свои сообщения
Вы не можете удалять свои сообщения
Вы не можете голосовать в опросах
Вы не можете прикреплять файлы к сообщениям
Вы не можете скачивать файлы