(Heavy Metal) Last In Line - Heavy Crown (Japan Edition) - 2016 [FLAC, tracks +.cue, lossless]

 
Автор Сообщение

sergej644 ®

Пол:

Стаж: 4 года 11 месяцев

Сообщений: 6036

Откуда: Soviet Union



Награды: Нет

Торрент-статистика

Создавать темы 16-Фев-2016 20:31

[Цитировать]

-Last In Line - Heavy Crown --
Год издания: 2016
Страна: UK | USA |
Жанр: Heavy Metal-Продолжительность: 00:55:48
Лейбл издания: Frontiers Records / Ward Records
Страна-выпуска диска: Japan -Формат: FLAC
Битрейт аудио: Lossless
Тип рипа: tracks +.cue
Наличие сканов в содержимом раздачи: да
-

Трэклист


01. Devil In Me (04:52)
02. Martyr (02:42)
03. Starmaker (05:04)
04. Burn This House Down (03:56)
05. I Am Revolution (03:01)
06. Blame It On Me (06:28)
07. In Flames (Bonus Track) (02:58)
08. Already Dead (03:36)
09. Curse The Day (04:52)
10. Orange Glow (04:42)
11. Heavy Crown (03:57)
12. The Sickness (05:52)
13. Heavy Crown (Acoustic Remix · Bonus Track Japan) (03:56)
-

Лог создания рипа

Exact Audio Copy V1.1 from 23. June 2015
EAC extraction logfile from 14. February 2016, 6:27
Last In Line / Heavy Crown
Used drive  : ASUS    SDRW-08U5S-U   Adapter: 1  ID: 0
Read mode               : Secure
Utilize accurate stream : Yes
Defeat audio cache      : Yes
Make use of C2 pointers : No
Read offset correction                      : 6
Overread into Lead-In and Lead-Out          : No
Fill up missing offset samples with silence : Yes
Delete leading and trailing silent blocks   : No
Null samples used in CRC calculations       : Yes
Used interface                              : Native Win32 interface for Win NT & 2000
Gap handling                                : Appended to previous track
Used output format              : User Defined Encoder
Selected bitrate                : 320 kBit/s
Quality                         : High
Add ID3 tag                     : No
Command line compressor         : C:\Program Files (x86)\Exact Audio Copy\Flac\flac.exe
Additional command line options : -8 -V -T "ARTIST=%artist%" -T "TITLE=%title%" -T "ALBUM=%albumtitle%" -T "DATE=%year%" -T "TRACKNUMBER=%tracknr%" -T "TOTALTRACKS=%numtracks%" -T "GENRE=%genre%" -T "ALBUMARTIST=%albumartist%" -T "ALBUM ARTIST=%albumartist%" -T "COMMENT=EAC Secure Mode, Test & Copy, AccurateRip, FLAC -8" %source%
TOC of the extracted CD
     Track |   Start  |  Length  | Start sector | End sector
    ---------------------------------------------------------
        1  |  0:00.00 |  4:51.03 |         0    |    21827
        2  |  4:51.03 |  2:41.68 |     21828    |    33970
        3  |  7:32.71 |  5:03.24 |     33971    |    56719
        4  | 12:36.20 |  3:55.17 |     56720    |    74361
        5  | 16:31.37 |  3:00.09 |     74362    |    87870
        6  | 19:31.46 |  6:27.65 |     87871    |   116960
        7  | 25:59.36 |  2:57.11 |    116961    |   130246
        8  | 28:56.47 |  3:35.07 |    130247    |   146378
        9  | 32:31.54 |  4:51.60 |    146379    |   168263
       10  | 37:23.39 |  4:41.07 |    168264    |   189345
       11  | 42:04.46 |  3:56.20 |    189346    |   207065
       12  | 46:00.66 |  5:51.11 |    207066    |   233401
       13  | 51:52.02 |  3:55.51 |    233402    |   251077
Track  1
     Filename Z:\Uploads\Last In Line - Heavy Crown (2016) [FLAC] {Japan + 1 with DVD5 NTSC}\01 - Devil In Me.wav
     Pre-gap length  0:00:02.00
     Peak level 100.0 %
     Extraction speed 2.9 X
     Track quality 100.0 %
     Test CRC 2EC157D0
     Copy CRC 2EC157D0
     Track not present in AccurateRip database
     Copy OK
Track  2
     Filename Z:\Uploads\Last In Line - Heavy Crown (2016) [FLAC] {Japan + 1 with DVD5 NTSC}\02 - Martyr.wav
     Peak level 100.0 %
     Extraction speed 2.9 X
     Track quality 100.0 %
     Test CRC 336D734B
     Copy CRC 336D734B
     Track not present in AccurateRip database
     Copy OK
Track  3
     Filename Z:\Uploads\Last In Line - Heavy Crown (2016) [FLAC] {Japan + 1 with DVD5 NTSC}\03 - Starmaker.wav
     Peak level 100.0 %
     Extraction speed 3.4 X
     Track quality 100.0 %
     Test CRC 8DBED441
     Copy CRC 8DBED441
     Track not present in AccurateRip database
     Copy OK
Track  4
     Filename Z:\Uploads\Last In Line - Heavy Crown (2016) [FLAC] {Japan + 1 with DVD5 NTSC}\04 - Burn This House Down.wav
     Peak level 100.0 %
     Extraction speed 3.6 X
     Track quality 100.0 %
     Test CRC 751589E7
     Copy CRC 751589E7
     Track not present in AccurateRip database
     Copy OK
Track  5
     Filename Z:\Uploads\Last In Line - Heavy Crown (2016) [FLAC] {Japan + 1 with DVD5 NTSC}\05 - I Am Revolution.wav
     Peak level 100.0 %
     Extraction speed 3.6 X
     Track quality 100.0 %
     Test CRC 17EC9855
     Copy CRC 17EC9855
     Track not present in AccurateRip database
     Copy OK
Track  6
     Filename Z:\Uploads\Last In Line - Heavy Crown (2016) [FLAC] {Japan + 1 with DVD5 NTSC}\06 - Blame It On Me.wav
     Peak level 100.0 %
     Extraction speed 4.3 X
     Track quality 100.0 %
     Test CRC BD74CCDD
     Copy CRC BD74CCDD
     Track not present in AccurateRip database
     Copy OK
Track  7
     Filename Z:\Uploads\Last In Line - Heavy Crown (2016) [FLAC] {Japan + 1 with DVD5 NTSC}\07 - In Flames.wav
     Peak level 100.0 %
     Extraction speed 4.1 X
     Track quality 100.0 %
     Test CRC E552DBD7
     Copy CRC E552DBD7
     Track not present in AccurateRip database
     Copy OK
Track  8
     Filename Z:\Uploads\Last In Line - Heavy Crown (2016) [FLAC] {Japan + 1 with DVD5 NTSC}\08 - Already Dead.wav
     Peak level 100.0 %
     Extraction speed 3.5 X
     Track quality 99.9 %
     Test CRC 8AC3627B
     Copy CRC 8AC3627B
     Track not present in AccurateRip database
     Copy OK
Track  9
     Filename Z:\Uploads\Last In Line - Heavy Crown (2016) [FLAC] {Japan + 1 with DVD5 NTSC}\09 - Curse The Day.wav
     Peak level 100.0 %
     Extraction speed 4.1 X
     Track quality 99.9 %
     Test CRC 8F95E53D
     Copy CRC 8F95E53D
     Track not present in AccurateRip database
     Copy OK
Track 10
     Filename Z:\Uploads\Last In Line - Heavy Crown (2016) [FLAC] {Japan + 1 with DVD5 NTSC}\10 - Orange Glow.wav
     Peak level 100.0 %
     Extraction speed 4.9 X
     Track quality 100.0 %
     Test CRC 6AA158C8
     Copy CRC 6AA158C8
     Track not present in AccurateRip database
     Copy OK
Track 11
     Filename Z:\Uploads\Last In Line - Heavy Crown (2016) [FLAC] {Japan + 1 with DVD5 NTSC}\11 - Heavy Crown.wav
     Peak level 100.0 %
     Extraction speed 5.0 X
     Track quality 100.0 %
     Test CRC 39B6327D
     Copy CRC 39B6327D
     Track not present in AccurateRip database
     Copy OK
Track 12
     Filename Z:\Uploads\Last In Line - Heavy Crown (2016) [FLAC] {Japan + 1 with DVD5 NTSC}\12 - The Sickness.wav
     Peak level 100.0 %
     Extraction speed 5.4 X
     Track quality 100.0 %
     Test CRC F9946478
     Copy CRC F9946478
     Track not present in AccurateRip database
     Copy OK
Track 13
     Filename Z:\Uploads\Last In Line - Heavy Crown (2016) [FLAC] {Japan + 1 with DVD5 NTSC}\13 - Heavy Crown (Acoustic Remix).wav
     Peak level 100.0 %
     Extraction speed 5.4 X
     Track quality 100.0 %
     Test CRC ED57C300
     Copy CRC ED57C300
     Track not present in AccurateRip database
     Copy OK
None of the tracks are present in the AccurateRip database
No errors occurred
End of status report
---- CUETools DB Plugin V2.1.6
[CTDB TOCID: 7thBVxKfdBLYuJfqsnYA3FUteTU-] found
Submit result: 7thBVxKfdBLYuJfqsnYA3FUteTU- has been confirmed
Track | CTDB Status
  1   | (5/5) Accurately ripped
  2   | (5/5) Accurately ripped
  3   | (5/5) Accurately ripped
  4   | (5/5) Accurately ripped
  5   | (5/5) Accurately ripped
  6   | (5/5) Accurately ripped
  7   | (5/5) Accurately ripped
  8   | (5/5) Accurately ripped
  9   | (5/5) Accurately ripped
10   | (5/5) Accurately ripped
11   | (5/5) Accurately ripped
12   | (5/5) Accurately ripped
13   | (5/5) Accurately ripped

Индексная карта (non-compilant .cue)

REM GENRE "Heavy Metal"
REM DATE 2016
REM DISCID BA0D130D
REM COMMENT "ExactAudioCopy v1.1"
PERFORMER "Last In Line"
TITLE "Heavy Crown"
FILE "01. Devil In Me.flac" WAVE
  TRACK 01 AUDIO
    TITLE "Devil In Me"
    PERFORMER "Last In Line"
    INDEX 01 00:00:00
FILE "02. Martyr.flac" WAVE
  TRACK 02 AUDIO
    TITLE "Martyr"
    PERFORMER "Last In Line"
    INDEX 01 00:00:00
FILE "03. Starmaker.flac" WAVE
  TRACK 03 AUDIO
    TITLE "Starmaker"
    PERFORMER "Last In Line"
    INDEX 01 00:00:00
FILE "04. Burn This House Down.flac" WAVE
  TRACK 04 AUDIO
    TITLE "Burn This House Down"
    PERFORMER "Last In Line"
    INDEX 01 00:00:00
FILE "05. I Am Revolution.flac" WAVE
  TRACK 05 AUDIO
    TITLE "I Am Revolution"
    PERFORMER "Last In Line"
    INDEX 01 00:00:00
FILE "06. Blame It On Me.flac" WAVE
  TRACK 06 AUDIO
    TITLE "Blame It On Me"
    PERFORMER "Last In Line"
    INDEX 01 00:00:00
FILE "07. In Flames (Bonus Track).flac" WAVE
  TRACK 07 AUDIO
    TITLE "In Flames (Bonus Track)"
    PERFORMER "Last In Line"
    INDEX 01 00:00:00
FILE "08. Already Dead.flac" WAVE
  TRACK 08 AUDIO
    TITLE "Already Dead"
    PERFORMER "Last In Line"
    INDEX 01 00:00:00
FILE "09. Curse The Day.flac" WAVE
  TRACK 09 AUDIO
    TITLE "Curse The Day"
    PERFORMER "Last In Line"
    INDEX 01 00:00:00
FILE "10. Orange Glow.flac" WAVE
  TRACK 10 AUDIO
    TITLE "Orange Glow"
    PERFORMER "Last In Line"
    INDEX 01 00:00:00
FILE "11. Heavy Crown.flac" WAVE
  TRACK 11 AUDIO
    TITLE "Heavy Crown"
    PERFORMER "Last In Line"
    INDEX 01 00:00:00
FILE "12. The Sickness.flac" WAVE
  TRACK 12 AUDIO
    TITLE "The Sickness"
    PERFORMER "Last In Line"
    INDEX 01 00:00:00
FILE "13. Heavy Crown (Acoustic Remix · Bonus Track Japan).flac" WAVE
  TRACK 13 AUDIO
    TITLE "Heavy Crown (Acoustic Remix · Bonus Track Japan)"
    PERFORMER "Last In Line"
    INDEX 01 00:00:00

Информация о группе:


LAST IN LINE – новая группа гитариста DEF LEPPARD Вивиана Кэмпбелла, а также основателей DIOВинни Апписи (ударные) и Джимми Бэйна (бас), плюс вокалиста Эндрю Фримэна, который прежде солировал в HURRICANE и LYNCH MOB.Запись диска проходила в Южной Калифорнии с продюсером Джеффом Пилсоном – ветераном бас-гитары, который прежде играл в DIO, FOREIGNER, DOKKEN и T&N.
История LAST IN LINE берет начало в репетиционном зале Лос-Анджелеса, где музыканты впервые собрались в 2011 году ради веселья. Впоследствии проект вырос в полноценную группу, берущую название от второго лонгплея DIO 1984 года. Именно Апписи, Бэйн и Кэмпбелл в соавторстве с легендарным Ронни Джеймсом Дио написали и записали пластинки «Holy Diver» (1983), «The Last in Line» (1984) и «Sacred Heart» (1985), определившие классический ранний звук DIO и ставшие частью истории рок-н-ролла.
Во время первого джем-сейшна стало ясно, что химия давней команды осталась нетронутой даже после 27-летнего перерыва. Это возбуждение привело ко второй сессии, но на этот раз к инструментальной основе присоединился вокалист Эндрю Фримэн (товарищ Винни), который принимал участие в записи альбома «Raiding The Rock Vault», а также работал в должности бэк-вокалиста для THE OFFSPRING.

Для ознакомления:

Last in Line - Devil in Me (Official Video / Studio Album / 2016)https://www.youtube.com/watch?v=P8t-9o-jyrI
https://www.youtube.com/watch?v=jK44adkLgDs
--
[Профиль] [ЛС]
Показать сообщения:    

Текущее время: Сегодня 14:03

Часовой пояс: GMT



Вы не можете начинать темы
Вы не можете отвечать на сообщения
Вы не можете редактировать свои сообщения
Вы не можете удалять свои сообщения
Вы не можете голосовать в опросах
Вы не можете прикреплять файлы к сообщениям
Вы не можете скачивать файлы